Сегодня идет свободное скачивание без начисления Download

Замёрзшие / Frozen (Адам Грин / Adam Green) [2010 г.] (триллер, драма) [BDRip-AVC] (Dub) [internal release]

Ответить на тему
 
Автор
Сообщение

nsa1977 ®

Пол:

Стаж: 8 лет 8 месяцев

Сообщений: 1475

Откуда: Пенза

Торрент-статистика

Пост 07-Май-2011 02:14

[Цитировать]

---Замёрзшие / Frozen---
Год выпуска: 2010
Производство: США / Anchor Bay Films
Жанр: триллер, драма
Продолжительность: 01:32:09
Перевод: Профессиональное (полное дублирование) [лицензия]
Режиссер: Адам Грин / Adam Green-В ролях: Эмма Белл, Шон Эшмор, Кевин Зегерс, Эд Экерман, Райли Вандербилт, Кэйн Ходдер,
Адам Джонсон, Крис Йорк, Педер Мелхёз, Уилл Бэррэтт-Описание: Не всматривайтесь в бездну, иначе бездна начнет всматриваться в вас… Три молодых
человека — сноубордисты и лыжник даже и не подозревали, как это может быть в реальности, и какой
чудовищный кошмар ожидает их. Они застревают на подъемнике, и веселый вечер в заснеженных зимних
горах превращается в ад. Жуткий холод и обжигающий ветер несут гибель несчастным, оказавшимся в
ловушке на огромной высоте. Время работает против них — никто не придет на помощь, ведь горнолыжный
курорт закрыт на несколько дней. Остается одно — спасаться самим. Но чтобы спастись — нужно победить
ужас этой ночи! Весь ужас…
Источник/Качество: BDRip-AVC | Сэмпл | IMDB | КиноПоиск
Формат: MKV
Видео кодек: H.26x
Аудио кодек: AC3
Видео: 1040x432, 2 520 Kbps, 23.976 fps
Аудио: 6 channels, 320 Kbps, 48.0 KHz Rus/Eng

Media Info

General
Complete name : D:Frozen.2010.D.BDRip.x264.JRG.mkv
Format : Matroska
File size : 2.05 GiB
Duration : 1h 32mn
Overall bit rate : 3 188 Kbps
Encoded date : UTC 2011-05-04 19:45:46
Writing application : mkvmerge v4.0.0 ('The Stars were mine') сборка от Jun 6 2010 16:18:42
Writing library : libebml v1.0.0 + libmatroska v1.0.0
Video
ID : 1
Format : AVC
Format/Info : Advanced Video Codec
Format profile : [url=mailto:[email protected]][email protected][/url]
Format settings, CABAC : Yes
Format settings, ReFrames : 8 frames
Codec ID : V_MPEG4/ISO/AVC
Duration : 1h 32mn
Bit rate : 2 520 Kbps
Width : 1 040 pixels
Height : 432 pixels
Display aspect ratio : 2.40:1
Frame rate : 23.976 fps
Color space : YUV
Chroma subsampling : 4:2:0
Bit depth : 8 bits
Scan type : Progressive
Bits/(Pixel*Frame) : 0.234
Stream size : 1.60 GiB (78%)
Title : JRG for /*spam*/
Writing library : x264 core 113 r1884 7313bb5
Audio #1
ID : 2
Format : AC-3
Format/Info : Audio Coding 3
Mode extension : CM (complete main)
Codec ID : A_AC3
Duration : 1h 32mn
Bit rate mode : Constant
Bit rate : 320 Kbps
Channel(s) : 6 channels
Channel positions : Front: L C R, Side: L R, LFE
Sampling rate : 48.0 KHz
Bit depth : 16 bits
Stream size : 211 MiB (10%)
Language : Russian
Audio #2
ID : 3
Format : AC-3
Format/Info : Audio Coding 3
Mode extension : CM (complete main)
Codec ID : A_AC3
Duration : 1h 32mn
Bit rate mode : Constant
Bit rate : 320 Kbps
Channel(s) : 6 channels
Channel positions : Front: L C R, Side: L R, LFE
Sampling rate : 48.0 KHz
Bit depth : 16 bits
Stream size : 211 MiB (10%)
Language : English
    

_________________


Последний раз редактировалось: nsa1977 (2011-05-07 02:15), всего редактировалось 1 раз
Вне форума [Профиль] [ЛС]
Показать сообщения:    
Ответить на тему

Текущее время: Сегодня 20:31

Часовой пояс: GMT + 3



Вы не можете начинать темы
Вы не можете отвечать на сообщения
Вы не можете редактировать свои сообщения
Вы не можете удалять свои сообщения
Вы не можете голосовать в опросах
Вы не можете прикреплять файлы к сообщениям
Вы не можете скачивать файлы