Today is a free download without charge Download

Повар, вор, его жена и её любовник / The Cook, The Thief, His Wife, And Her Lover (Питер Гринуэй / Peter Greenaway) [1989, Великобритания-Франция, Драма, черная комедия, BDRip 720p] AVO (Горчаков) + MVO + Sub Rus,Eng + Original Eng

Reply to topic
 
Author
Message

Omen ®

Longevity: 8 years 5 months

Posts: 181087

Торрент-статистика

Post 24-Jan-2013 01:56

[Quote]

Повар, вор, его жена и её любовник / Cook, The Thief, His Wife, And Her Lover, The
Страна: Великобритания, Франция
Студия: ALLARTS & ELSEVIER VENDEX
Жанр: Драма, черная комедия
Год выпуска: 1989
Продолжительность: 02:03:56
Перевод 1: Авторский (одноголосый закадровый) Василий Горчаков
Перевод 2: Профессиональный (многоголосый закадровый)
Cубтитры: русские. английские
Оригинальная аудиодорожка: английский
Режиссер: Питер Гринуэй / Peter Greenaway
В ролях: Хелен Миррен /Helen Mirren/, Майкл Гэмбон /Michael Gambon/, Тим Рот /Tim Roth/, Ришар Боренже /Richard Bohringer/, Алан Хауард /Alan Howard/, Лиз Смит /Liz Smith/, Сайэрэн Хайндз /Ciaran Hinds/, Гэри Олсен /Gary Olsen/, Ивэн Стюарт /Ewan Stewart/, Роджер Эштон Гриффитс /Roger Ashton Griffiths/, Рон Кук /Ron Cook/
Описание: Этот фильм мастера английского киноавангарда Гринэуэя называли самым оригинальным и самым отвратительным фильмом года. Содержание его - постоянный секс и насилие в ресторане, где это все происходит. Гэмбон играет мерзкого гангстера. Он обедает со своей женой (Миррен), которую постоянно бъет. Один совет: ничего не ешьте перед тем, как смотреть фильм. Сценарист Питер Гринэуэй. Замечательная музыка Майкла Наймэна. Оператор Саша Вьерни. Монтаж Джон Уилсон. Художники Бен Ван Ос и Джэн Ролфс. Костюмы Жан Поль Голтье. Продюсер Кеес Касандер. (Иванов М.)
--------------------------------------------------
Оператор: Саша Вьерни /Sacha Vierny/
Сценарист: Питер Гринуэй /Peter Greenaway/
Продюсер: Кеес Касандер /Kees Kasander/
Переводчик: Василий Горчаков
Монтажер: Джон Уилсон /John Wilson/
Композитор: Майкл Найман /Michael Nyman/
Художник: Бен Ван Ос /Ben Van Os/, Ян Роэлфс /Jan Roelfs/
Костюмы: Жан-Поль Готье /Jean-Paul Gaultier/
--------------------------------------------------
КИНОПОИСК. RU
РЕЙТИНГ 7.731 оценки: 2441
--------------------------------------------------
СЭМПЛ
Тип релиза: BDRip 720p
Контейнер: MKV
Видео: 1280x544; 24.000 fps; ~ 6 500 Kbps; 0.389 Bits/Pixel
Аудио 1: Russian - 48 kHz, AC3, 2/0 Front: L R, ~ 192 kbps - Василий Горчаков
Аудио 2: Russian - 48 kHz, AC3, 2/0 Front: L R, ~ 192 kbps - MVO
Аудио 3: English - 48 kHz, AC3, 2/0 Front: L R, ~ 192 kbps - Original
Формат субтитров: softsub (SSA/ASS)

MediaInfo

General
Complete name : F:\EXCLUZIVE=19\ПОВАР, ВОР, ЕГО ЖЕНА И ЕЕ ЛЮБОВНИК [Cook, The Thief, His Wife, And Her Lover, The][1989]\Cook, The Thief, His Wife, And Her Lover, The [Peter Greenaway][1989]\The Cook, The Thief, His Wife and Her Lover 1989 720p Bluray DD2.0 x264-UioP.mkv
Format : Matroska
File size : 6.13 GiB
Duration : 2h 4mn
Overall bit rate : 7 047 Kbps
Encoded date : UTC 2013-01-23 01:11:35
Writing application : mkvmerge v3.3.0 ('Language') built on Mar 24 2010 14:59:24
Writing library : libebml v0.8.0 + libmatroska v0.9.0
Video
ID : 1
Format : AVC
Format/Info : Advanced Video Codec
Format profile : [email protected]
Format settings, CABAC : Yes
Format settings, ReFrames : 8 frames
Format settings, GOP : M=4, N=25
Muxing mode : Container [email protected]
Codec ID : V_MPEG4/ISO/AVC
Duration : 2h 4mn
Bit rate : 6 500 Kbps
Width : 1 280 pixels
Height : 544 pixels
Display aspect ratio : 2.35:1
Frame rate : 24.000 fps
Color space : YUV
Chroma subsampling : 4:2:0
Bit depth : 8 bits
Scan type : Progressive
Bits/(Pixel*Frame) : 0.389
Stream size : 5.50 GiB (90%)
Title : The Cook, The Thief, His Wife and Her Lover
Writing library : x264 core 125 r2200 999b753
Encoding settings : cabac=1 / ref=8 / deblock=1:-2:-2 / analyse=0x3:0x113 / me=umh / subme=10 / psy=1 / psy_rd=1.08:0.00 / mixed_ref=1 / me_range=48 / chroma_me=1 / trellis=2 / 8x8dct=1 / cqm=0 / deadzone=21,11 / fast_pskip=0 / chroma_qp_offset=-2 / threads=12 / lookahead_threads=2 / sliced_threads=0 / nr=0 / decimate=0 / interlaced=0 / bluray_compat=0 / constrained_intra=0 / bframes=8 / b_pyramid=2 / b_adapt=2 / b_bias=0 / direct=3 / weightb=1 / open_gop=0 / weightp=2 / keyint=240 / keyint_min=24 / scenecut=40 / intra_refresh=0 / rc=2pass / mbtree=0 / bitrate=6500 / ratetol=1.0 / qcomp=0.90 / qpmin=0 / qpmax=69 / qpstep=4 / cplxblur=20.0 / qblur=0.5 / ip_ratio=1.20 / pb_ratio=1.10 / aq=1:0.60 / zones=17557,20084,b=1.2,b-bias=-1000
Language : English
Audio #1
ID : 2
Format : AC-3
Format/Info : Audio Coding 3
Mode extension : CM (complete main)
Codec ID : A_AC3
Duration : 2h 4mn
Bit rate mode : Constant
Bit rate : 192 Kbps
Channel(s) : 2 channels
Channel positions : Front: L R
Sampling rate : 48.0 KHz
Stream size : 171 MiB (3%)
Title : AVO - ГОРЧАКОВ -AC3 192k
Language : Russian
Audio #2
ID : 3
Format : AC-3
Format/Info : Audio Coding 3
Mode extension : CM (complete main)
Codec ID : A_AC3
Duration : 2h 4mn
Bit rate mode : Constant
Bit rate : 192 Kbps
Channel(s) : 2 channels
Channel positions : Front: L R
Sampling rate : 48.0 KHz
Stream size : 171 MiB (3%)
Title : MVO - AC3 192k
Language : Russian
Audio #3
ID : 4
Format : AC-3
Format/Info : Audio Coding 3
Mode extension : CM (complete main)
Codec ID : A_AC3
Duration : 2h 4mn
Bit rate mode : Constant
Bit rate : 192 Kbps
Channel(s) : 2 channels
Channel positions : Front: L R
Sampling rate : 48.0 KHz
Stream size : 171 MiB (3%)
Title : Original - AC3 192k
Language : English
Text #1
ID : 5
Format : ASS
Codec ID : S_TEXT/ASS
Codec ID/Info : Advanced Sub Station Alpha
Language : Russian
Text #2
ID : 6
Format : UTF-8
Codec ID : S_TEXT/UTF8
Codec ID/Info : UTF-8 Plain Text
Language : English

Скриншоты

, ,
, ,
, ,
, ,
Мои раздачи фильмов в Авторском переводе
Other forum [Profile] [PM]
Similar theme
Forum Topic Author Torrent Replies Last Post
./templates/default/images/folder_dl.gif Развлекательные телепередачи и шоу, приколы и юмор Шеф-повар дома / Chef At Home [01-36 серия] (2004) SATRip Omen
0 | 1

0 | 503

0

2013-01-28 04:33
Omen Latest
Display posts from previous:    
Reply to topic

The time now is: Today 06:16

All times are GMT + 3 Hours



You cannot post new topics in this forum
You cannot reply to topics in this forum
You cannot edit your posts in this forum
You cannot delete your posts in this forum
You cannot vote in polls in this forum
You cannot attach files in this forum
You cannot download files in this forum