Today is a free download without charge Download

Короткое замыкание 2 / Short Circuit 2 (Кеннет Джонсон / Kenneth Johnson) [1988, США, фантастика, комедия, семейный, BDRip 720p] Dub + AVO (Карповский) + Original + subs (Rus, Eng)

Reply to topic
 
Author
Message

Omen ®

Longevity: 8 years 5 months

Posts: 181087

Торрент-статистика

Post 24-Jan-2013 01:56

[Quote]

Короткое замыкание 2 / Short Circuit 2- Год выпуска: 1988
Страна: США
Жанр: фантастика, комедия, семейный
Продолжительность: 01:50:25
Перевод 1: Профессиональный (полное дублирование)
Перевод 2: Авторский одноголосый А.Карповский
Оригинальная звуковая дорожка: English
Cубтитры: Русские, английские-Режиссер: Кеннет Джонсон / Kenneth Johnson
В ролях: Тим Блэйни, Фишер Стивенс, Майкл МакКин, Синтия Гибб, Джек Уэстон, Ди МакКафферти, Дэвид Хемблен, Дон Лейк, Дэймон Д’Оливера, Тито Нуньес
Описание: Бен Джарви, по происхождению индиец, а по профессии - изобретатель-конструктор роботов, вынужден работать уличным торговцем. В первом фильме его отстранили от работы после инцидента с созданным им роботом Номер пять.
Теперь Бен оказался на мели, он вынужден жить в фургончике и делать игрушечных роботов для продажи на улице. Эти роботы все, как один, похожи на Номера пять, но только дизайном..... Номер пять обрел личность благодаря короткому замыканию, а эти малыши - всего лишь бездушные игрушки.
Маленькие роботы привлекают внимание сотрудницы известного магазина игрушек и она делает Бену выгодное предложение - к Рождеству он должен собрать тысячу таких роботов и продать магазину оптом.
Предприимчивый американец советует Бену принять выгодное предложение и обещает помочь ему в выполнении заказа. Бен заключает сделку. Вместе со своим компаньоном он арендует рабочий цех и привлекает помощников. Приезжает и Номер пять, чтобы помочь своему создателю и другу Бену.
Бен выбирает неудачное место для работы: этажом ниже находится целая банда преступников. Это грабители банков, они роют подземный ход в хранилище, где содержится коллекция бриллиантов. Появление Бена и его помощников может сорвать подготовку к ограблению, поэтому грабители принимают решение избавиться от нежелательных соседей.... .-madoff!
Релиз: by Skoped
Формат: MKV
Видео: 1280x694 at 23.976 fps, [email protected], 2pass, ~9 600 kbps avg
Аудио #1: Russian: 48 kHz, AC3, 2/0 (L,R) ch, ~192.00 kbps avg |Дубляж, Варус Видео|
Аудио #2: Russian: 48 kHz, DTS, 2/0 (L,R) ch, ~755.00 kbps avg |Одноголосый закадровый, Карповский|
Аудио #3: English: 48 kHz, AC3, 2/0 (L,R) ch, ~640.00 kbps avg
Семпл
-

MInfo


Формат : Matroska
Версия формата : Version 2
Размер файла : 8,63 Гбайт
Продолжительность : 1 ч. 50 м.
Общий поток : 11,2 Мбит/сек
Название фильма : HDCLUB
Дата кодирования : UTC 2013-01-21 20:31:10
Программа кодирования : mkvmerge v5.7.0 ('The Whirlwind') built on Jul 8 2012 20:08:51
Библиотека кодирования : libebml v1.2.3 + libmatroska v1.3.0
Видео
Идентификатор : 1
Формат : AVC
Формат/Информация : Advanced Video Codec
Профиль формата : [email protected]
Параметр CABAC формата : Да
Параметр ReFrames формата : 9 кадров
Идентификатор кодека : V_MPEG4/ISO/AVC
Продолжительность : 1 ч. 50 м.
Битрейт : 9600 Кбит/сек
Ширина : 1280 пикселей
Высота : 694 пикселя
Соотношение сторон : 1,85:1
Режим частоты кадров : Постоянный
Частота кадров : 23,976 кадра/сек
Цветовое пространство : YUV
Субдискретизация насыщенности : 4:2:0
Битовая глубина : 8 бит
Тип развёртки : Прогрессивная
Бит/(Пиксели*Кадры) : 0.451
Размер потока : 7,23 Гбайт (84%)
Заголовок : HDCLUB
Библиотека кодирования : x264 core 129 r2230 1cffe9f
Настройки программы : cabac=1 / ref=9 / deblock=1:-3:-3 / analyse=0x3:0x113 / me=umh / subme=11 / psy=1 / psy_rd=1.20:0.00 / mixed_ref=1 / me_range=32 / chroma_me=1 / trellis=2 / 8x8dct=1 / cqm=0 / deadzone=21,11 / fast_pskip=0 / chroma_qp_offset=-2 / threads=12 / lookahead_threads=2 / sliced_threads=0 / nr=0 / decimate=1 / interlaced=0 / bluray_compat=0 / constrained_intra=0 / bframes=11 / b_pyramid=2 / b_adapt=2 / b_bias=0 / direct=1 / weightb=1 / open_gop=0 / weightp=2 / keyint=240 / keyint_min=22 / scenecut=40 / intra_refresh=0 / rc_lookahead=40 / rc=2pass / mbtree=0 / bitrate=9600 / ratetol=1.0 / qcomp=0.60 / qpmin=10 / qpmax=69 / qpstep=4 / cplxblur=20.0 / qblur=0.5 / vbv_maxrate=50000 / vbv_bufsize=62500 / nal_hrd=none / ip_ratio=1.40 / pb_ratio=1.30 / aq=1:1.00
Язык : English
Default : Да
Forced : Нет
Аудио #1
Идентификатор : 2
Формат : AC-3
Формат/Информация : Audio Coding 3
Расширение режима : CM (complete main)
Параметр Endianness формата : Big
Идентификатор кодека : A_AC3
Продолжительность : 1 ч. 50 м.
Вид битрейта : Постоянный
Битрейт : 192 Кбит/сек
Каналы : 2 канала
Расположение каналов : Front: L R
Частота : 48,0 КГц
Битовая глубина : 16 бит
Метод сжатия : С потерями
Размер потока : 152 Мбайт (2%)
Заголовок : |Дубляж, Варус Видео|
Язык : Russian
Default : Да
Forced : Нет
Аудио #2
Идентификатор : 3
Формат : DTS
Формат/Информация : Digital Theater Systems
Режим : 16
Параметр Endianness формата : Big
Идентификатор кодека : A_DTS
Продолжительность : 1 ч. 50 м.
Вид битрейта : Постоянный
Битрейт : 768 Кбит/сек
Каналы : 2 канала
Расположение каналов : Front: L R
Частота : 48,0 КГц
Битовая глубина : 24 бит
Метод сжатия : С потерями
Размер потока : 607 Мбайт (7%)
Заголовок : |Одноголосый закадровый, Карповский|
Язык : Russian
Default : Нет
Forced : Нет
Аудио #3
Идентификатор : 4
Формат : AC-3
Формат/Информация : Audio Coding 3
Расширение режима : CM (complete main)
Параметр Endianness формата : Big
Идентификатор кодека : A_AC3
Продолжительность : 1 ч. 50 м.
Вид битрейта : Постоянный
Битрейт : 640 Кбит/сек
Каналы : 2 канала
Расположение каналов : Front: L R
Частота : 48,0 КГц
Битовая глубина : 16 бит
Метод сжатия : С потерями
Размер потока : 506 Мбайт (6%)
Язык : English
Default : Нет
Forced : Нет
Текст #1
Идентификатор : 5
Формат : UTF-8
Идентификатор кодека : S_TEXT/UTF8
Идентификатор кодека/Информация : UTF-8 Plain Text
Язык : Russian
Default : Нет
Forced : Нет
Текст #2
Идентификатор : 6
Формат : UTF-8
Идентификатор кодека : S_TEXT/UTF8
Идентификатор кодека/Информация : UTF-8 Plain Text
Язык : English
Default : Нет
Forced : Нет
Меню
00:00:00.000 : :00:00:00.000
00:05:06.764 : :00:05:06.764
00:11:57.133 : :00:11:57.133
00:17:12.530 : :00:17:12.530
00:24:50.989 : :00:24:50.989
00:35:11.192 : :00:35:11.192
00:41:19.643 : :00:41:19.643
00:46:59.315 : :00:46:59.315
00:56:21.378 : :00:56:21.378
01:03:52.161 : :01:03:52.161
01:07:26.751 : :01:07:26.751
01:15:41.744 : :01:15:41.744
01:22:34.114 : :01:22:34.114
01:30:03.689 : :01:30:03.689
01:38:17.349 : :01:38:17.349
01:44:27.344 : :01:44:27.344

-
Цитата:

*** Сохранены оригинальные чаптеры как на Blu-ray.
*** За ремукс спасибо pyha.
*** Дубляж-псевдо стерео
Other forum [Profile] [PM]
Similar theme
Forum Topic Author Torrent Replies Last Post
./templates/default/images/folder_dl.gif # Документальные фильмы и телепередачи «Аджика» экстремальный клуб (Сергей Целиков) [2019 г., Драма, короткометражный, WEB-DL 1080p] SaluteMe2
1 | 0

5 | 1995

0

2021-02-26 12:38
SaluteMe2 Latest
Display posts from previous:    
Reply to topic

The time now is: Today 19:14

All times are GMT + 3 Hours



You cannot post new topics in this forum
You cannot reply to topics in this forum
You cannot edit your posts in this forum
You cannot delete your posts in this forum
You cannot vote in polls in this forum
You cannot attach files in this forum
You cannot download files in this forum