Today is a free download without charge Download

В поисках Немо / Finding Nemo (Эндрю Стэнтон / Andrew Stanton, Ли Анкрич / Lee Unkrich) [2003, мультфильм, комедия, приключения, семейный, BDRemux 1080p] (Оригинальный видеоряд) DUB + AVO (Живов, Гаврилов, Карповский, Гранкин) + 2хDVO + UKR + ENG

Reply to topic
 
Author
Message

Omen ®

Longevity: 8 years

Posts: 181087

Торрент-статистика

Post 24-Jan-2013 01:56

[Quote]

В поисках Немо / Finding Nemo- Страна: США
Жанр: мультфильм, комедия, приключения, семейный
Продолжительность: 01:40:53
Год выпуска: 2003
Перевод 1: Профессиональный (дублированный) BD CEE
Перевод 2: Авторский (одноголосый закадровый) Юрий Живов
Перевод 3: Авторский (одноголосый закадровый) Андрей Гаврилов
Перевод 4: Профессиональный (двухголосый закадровый) С.Р.И.
Перевод 5: Профессиональный (двухголосый закадровый)
Перевод 6: Авторский (одноголосый закадровый) Антон Карповский
Перевод 7: Авторский (одноголосый закадровый) Евгений Гранкин
Русские субтитры: есть
-Режиссёры: Эндрю Стэнтон / Andrew Stanton, Ли Анкрич / Lee Unkrich
Роли озвучивали: Альберт Брукс, Эллен ДеДженерес, Александр Гулд, Уиллем Дефо, Эллисон Дженни, Джо Рэнфт, Джеффри Раш, Элизабет Перкинс, Эрик Бана, Эндрю Стэнтон
- |-Описание: Среди прекрасных тропических морских стихий, в районе Большого барьерного рифа в уединении живет рыба-клоун по имени Марлин. Он растит своего единственного сыночка Немо. Океан и существующие в нем опасности очень страшат Марлина, и он как может ограждает сына от них, но молодой Немо, страдающий излишним любопытством, очень хочет разузнать побольше о таинственном рифе, рядом с которым они живут.
Когда Немо по иронии судьбы оказывается вдалеке от дома, да и еще сталкивается с угрозой стать обедом рыбы-танка, Марлин отправляется на поиски сына. Но Марлин, конечно же, понимает, что героический спасатель из него не получится и просит о помощи в поисках, Дори, королевскую синюю рыбу, которая хоть и страдает от того, что почти ничего не помнит, но добрее ее не отыскать во всем безбрежном океане!
Итак, наши герои отправляются в путешествие, в котором их подкарауливают многочисленные трудности и опасности…
-Доп. информация:
  • Звуковые дорожки ## 3, 4 (Живов, Гаврилов) получены путем наложения чистых голосов на центральный канал декодированной оригинальной Dolby TrueHD дорожки.
  • Оригинальная Dolby TrueHD дорожка пересобрана в DTS-HD MA.
  • Спасибо multmir и GVR232 за любезно предоставленные чистые голоса Ю.Живова и А.Гаврилова.
  • Спасибо psicho и multmir за исходные 5.1 дорожки с двухголосыми закадровыми переводами.
  • Спасибо alenavova за исходную AC3 5.1 дорожку с переводом А.Карповского.
  • Спасибо bora86bora за исходную VHS оцифровку дорожки с переводом Е.Гранкина.
  • Звуковая дорожка с комментариями создателей взята с DVD R1 (синхронизирована без пережатия). Русские субтитры к комментариям взяты с DVD R5.
  • Работа со звуком - xfiles.
-Семпл: скачать-Качество: BDRemux 1080p (Исходник: BD CEE)
Контейнер: MKV
Видео: English, 1920x1080 (16:9), 23.976 fps, AVC, High Profile 4.1, 24431 kbps, 0.634 bits/pixel
Аудио #1: Русский, 48.0 KHz, AC3, 6 ch, 640 kbps - Дубляж
Аудио #2: Українська, 48.0 KHz, AC3, 6 ch, 640 kbps - Дубляж
Аудио #3: Русский, 48.0 KHz, DTS-HD MA, 8 ch, 4947 kbps, 24-bit (DTS Core: 5.1 / 48 kHz / 1509 kbps / 24-bit) - Одноголосый закадровый | Юрий Живов
Аудио #4: Русский, 48.0 KHz, DTS-HD MA, 8 ch, 4918 kbps, 24-bit (DTS Core: 5.1 / 48 kHz / 1509 kbps / 24-bit) - Одноголосый закадровый | Андрей Гаврилов
Аудио #5: Русский, 48.0 KHz, DTS, 6 ch, 768 kbps - Двухголосый закадровый | С.Р.И.
Аудио #6: Русский, 48.0 KHz, AC3, 6 ch, 448 kbps - Двухголосый закадровый
Аудио #7: Русский, 48.0 KHz, AC3, 6 ch, 448 kbps - Одноголосый закадровый | Антон Карповский
Аудио #8: Русский, 48.0 KHz, AC3, 1 ch, 128 kbps - Одноголосый закадровый | Евгений Гранкин
Аудио #9: English, 48.0 KHz, DTS-HD MA, 8 ch, 3593 kbps, 24-bit (DTS Core: 5.1 / 48 kHz / 1509 kbps / 24-bit)
Аудио #10: English, 48.0 KHz, AC3, 2 ch, 320 kbps - Audio Descriptive
Аудио #11: English, 48.0 KHz, AC3, 2 ch, 192 kbps - Commentary by director Andrew Stanton, co-director Lee Unkrich and co-writer Bob Peterson
Субтитры: Русские, Українські, English, English [SDH], Русские (комментарии)

MediaInfo

GeneralUnique ID : 238655536987825466970559868801019288470 (0xB38B626F1B893918B8806B271EBC1B96)Complete name : D:\HD\Finding.Nemo.2003.1080p.BDRemux.x264.rutracker.mkvFormat : MatroskaFormat version : Version 4 / Version 2File size : 29.2 GiBDuration : 1h 40mnOverall bit rate mode : VariableOverall bit rate : 41.5 MbpsMovie name : Finding Nemo (2003) Blu-ray Remux 1080pEncoded date : UTC 2010-02-22 21:41:31Writing application : mkvmerge v5.9.0 ('On The Loose') built on Dec 9 2012 15:37:01Writing library : libebml v1.3.0 + libmatroska v1.4.0
VideoID : 1Format : AVCFormat/Info : Advanced Video CodecFormat profile : [email protected] settings, CABAC : YesFormat settings, ReFrames : 4 framesCodec ID : V_MPEG4/ISO/AVCDuration : 1h 40mnBit rate mode : VariableMaximum bit rate : 31.5 MbpsWidth : 1 920 pixelsHeight : 1 080 pixelsDisplay aspect ratio : 16:9Frame rate mode : ConstantFrame rate : 23.976 fpsColor space : YUVChroma subsampling : 4:2:0Bit depth : 8 bitsScan type : ProgressiveTitle : BDRemux 1080p / xfiles / РГ Мультфильмы / rutracker.orgLanguage : EnglishDefault : YesForced : No
Audio #1ID : 2Format : AC-3Format/Info : Audio Coding 3Mode extension : CM (complete main)Format settings, Endianness : BigCodec ID : A_AC3Duration : 1h 40mnBit rate mode : ConstantBit rate : 640 KbpsChannel(s) : 6 channelsChannel positions : Front: L C R, Side: L R, LFESampling rate : 48.0 KHzBit depth : 16 bitsCompression mode : LossyStream size : 462 MiB (2%)Title : ДубляжLanguage : RussianDefault : YesForced : No
Audio #2ID : 3Format : AC-3Format/Info : Audio Coding 3Mode extension : CM (complete main)Format settings, Endianness : BigCodec ID : A_AC3Duration : 1h 40mnBit rate mode : ConstantBit rate : 640 KbpsChannel(s) : 6 channelsChannel positions : Front: L C R, Side: L R, LFESampling rate : 48.0 KHzBit depth : 16 bitsCompression mode : LossyStream size : 462 MiB (2%)Title : ДубляжLanguage : UkrainianDefault : NoForced : No
Audio #3ID : 4Format : DTSFormat/Info : Digital Theater SystemsFormat profile : MA / CoreMode : 16Format settings, Endianness : BigCodec ID : A_DTSDuration : 1h 40mnBit rate mode : VariableBit rate : Unknown / 1 509 KbpsChannel(s) : 8 channels / 6 channelsChannel positions : Front: L C R, Side: L R, Back: L R, LFE / Front: L C R, Side: L R, LFESampling rate : 48.0 KHzBit depth : 24 bitsCompression mode : Lossless / LossyTitle : Одноголосый закадровый | Юрий ЖивовLanguage : RussianDefault : NoForced : No
Audio #4ID : 5Format : DTSFormat/Info : Digital Theater SystemsFormat profile : MA / CoreMode : 16Format settings, Endianness : BigCodec ID : A_DTSDuration : 1h 40mnBit rate mode : VariableBit rate : Unknown / 1 509 KbpsChannel(s) : 8 channels / 6 channelsChannel positions : Front: L C R, Side: L R, Back: L R, LFE / Front: L C R, Side: L R, LFESampling rate : 48.0 KHzBit depth : 24 bitsCompression mode : Lossless / LossyTitle : Одноголосый закадровый | Андрей ГавриловLanguage : RussianDefault : NoForced : No
Audio #5ID : 6Format : DTSFormat/Info : Digital Theater SystemsMode : 16Format settings, Endianness : BigCodec ID : A_DTSDuration : 1h 40mnBit rate mode : ConstantBit rate : 768 KbpsChannel(s) : 6 channelsChannel positions : Front: L C R, Side: L R, LFESampling rate : 48.0 KHzBit depth : 24 bitsCompression mode : LossyStream size : 554 MiB (2%)Title : Двухголосый закадровый | С.Р.И.Language : RussianDefault : NoForced : No
Audio #6ID : 7Format : AC-3Format/Info : Audio Coding 3Mode extension : CM (complete main)Format settings, Endianness : BigCodec ID : A_AC3Duration : 1h 40mnBit rate mode : ConstantBit rate : 448 KbpsChannel(s) : 6 channelsChannel positions : Front: L C R, Side: L R, LFESampling rate : 48.0 KHzBit depth : 16 bitsCompression mode : LossyStream size : 323 MiB (1%)Title : Двухголосый закадровыйLanguage : RussianDefault : NoForced : No
Audio #7ID : 8Format : AC-3Format/Info : Audio Coding 3Mode extension : CM (complete main)Format settings, Endianness : BigCodec ID : A_AC3Duration : 1h 40mnBit rate mode : ConstantBit rate : 448 KbpsChannel(s) : 6 channelsChannel positions : Front: L C R, Side: L R, LFESampling rate : 48.0 KHzBit depth : 16 bitsCompression mode : LossyStream size : 323 MiB (1%)Title : Одноголосый закадровый | Антон КарповскийLanguage : RussianDefault : NoForced : No
Audio #8ID : 9Format : AC-3Format/Info : Audio Coding 3Mode extension : CM (complete main)Format settings, Endianness : BigCodec ID : A_AC3Duration : 1h 40mnBit rate mode : ConstantBit rate : 128 KbpsChannel(s) : 1 channelChannel positions : Front: CSampling rate : 48.0 KHzBit depth : 16 bitsCompression mode : LossyStream size : 92.4 MiB (0%)Title : Одноголосый закадровый | Евгений ГранкинLanguage : RussianDefault : NoForced : No
Audio #9ID : 10Format : DTSFormat/Info : Digital Theater SystemsFormat profile : MA / CoreMode : 16Format settings, Endianness : BigCodec ID : A_DTSDuration : 1h 40mnBit rate mode : VariableBit rate : Unknown / 1 509 KbpsChannel(s) : 8 channels / 6 channelsChannel positions : Front: L C R, Side: L R, Back: L R, LFE / Front: L C R, Side: L R, LFESampling rate : 48.0 KHzBit depth : 24 bitsCompression mode : Lossless / LossyTitle : OriginalLanguage : EnglishDefault : NoForced : No
Audio #10ID : 11Format : AC-3Format/Info : Audio Coding 3Format profile : Dolby DigitalMode extension : CM (complete main)Format settings, Endianness : BigCodec ID : A_AC3Duration : 1h 40mnBit rate mode : ConstantBit rate : 320 KbpsChannel(s) : 2 channelsChannel positions : Front: L RSampling rate : 48.0 KHzBit depth : 16 bitsCompression mode : LossyStream size : 231 MiB (1%)Title : Audio DescriptiveLanguage : EnglishDefault : NoForced : No
Audio #11ID : 12Format : AC-3Format/Info : Audio Coding 3Mode extension : CM (complete main)Format settings, Endianness : BigCodec ID : A_AC3Duration : 1h 40mnBit rate mode : ConstantBit rate : 192 KbpsChannel(s) : 2 channelsChannel positions : Front: L RSampling rate : 48.0 KHzBit depth : 16 bitsCompression mode : LossyStream size : 139 MiB (0%)Title : Commentary by director Andrew Stanton, co-director Lee Unkrich and co-writer Bob PetersonLanguage : EnglishDefault : NoForced : No
Text #1ID : 13Format : UTF-8Codec ID : S_TEXT/UTF8Codec ID/Info : UTF-8 Plain TextLanguage : RussianDefault : NoForced : No
Text #2ID : 14Format : UTF-8Codec ID : S_TEXT/UTF8Codec ID/Info : UTF-8 Plain TextLanguage : UkrainianDefault : NoForced : No
Text #3ID : 15Format : UTF-8Codec ID : S_TEXT/UTF8Codec ID/Info : UTF-8 Plain TextLanguage : EnglishDefault : NoForced : No
Text #4ID : 16Format : UTF-8Codec ID : S_TEXT/UTF8Codec ID/Info : UTF-8 Plain TextTitle : [SDH]Language : EnglishDefault : NoForced : No
Text #5ID : 17Format : UTF-8Codec ID : S_TEXT/UTF8Codec ID/Info : UTF-8 Plain TextTitle : Комментарии Эндрю Стэнтона, Ли Анкрича и Боба ПитерсонаLanguage : RussianDefault : NoForced : No
Menu00:00:00.000 : :01. New Parents00:04:18.717 : :02. Main Titles00:05:35.669 : :03. First Day of School00:11:17.802 : :04. Field Trip00:12:16.277 : :05. The Drop Off00:14:08.848 : :06. Nemo Lost00:16:29.280 : :07. Meeting Dory00:18:50.338 : :08. Sharks00:25:31.989 : :09. The Tank Gang00:30:54.227 : :10. The Abyss00:33:01.646 : :11. Anglerfish00:36:11.836 : :12. Nemo's Initiation00:40:19.167 : :13. Fish Impressions00:44:58.279 : :14. Jellyfish00:48:12.389 : :15. The Filter00:51:28.419 : :16. Sea Turtles00:56:07.030 : :17. News Travels01:00:55.902 : :18. Off Ramp01:05:20.667 : :19. Dory Speaks Whale01:07:02.101 : :20. Algae01:08:30.148 : :21. Inside the Whale01:13:19.437 : :22. Sydney Harbour01:14:15.201 : :23. The Aquascum01:16:00.097 : :24. Pelicans01:18:41.300 : :25. Darla!01:21:57.621 : :26. Goodbye Dory01:24:29.481 : :27. Nemo and Dory01:26:54.334 : :28. Fishing Net01:29:26.611 : :29. Reunion01:30:51.363 : :30. Back on the Reef01:32:42.974 : :31. Tank Escape01:33:24.265 : :32. End Credits

Скриншоты

Other forum [Profile] [PM]
Display posts from previous:    
Reply to topic

The time now is: Today 02:36

All times are GMT + 3 Hours



You cannot post new topics in this forum
You cannot reply to topics in this forum
You cannot edit your posts in this forum
You cannot delete your posts in this forum
You cannot vote in polls in this forum
You cannot attach files in this forum
You cannot download files in this forum