Today is a free download without charge Download

TRUSTcompany - Heart In My Hands [2010, Alternative Metal, HDTV 1080i]

Reply to topic
 
Author
Message

Omen ®

Longevity: 8 years 3 months

Posts: 181087

Торрент-статистика

Post 24-Jan-2013 01:56

[Quote]

TRUSTcompany - Heart In My Hands
Жанр: Alternative Metal
Продолжительность: 3:15
Год выпуска: 2010
Описание: В конце октября 2010 года группа закончила видео на песню "Heart In My Hands" и видео-премьера прошла по VEVO 15 декабря 2010 года. В место Эрика Салтера, в клипе был басист Рэйчел Болан из хэви-метал группы Skid Row
Качество: HDTV 1080i
Контейнер: MP4
Видео кодек: VC-1
Аудио кодек: AAC
Видео: mp4, 1920x1080, 3590 Kbps, 23.976 fps
Аудио: AAC, 128 Kbps, 44.1 KHz, 2 channels

Отчёт MediaInfo / BDInfo

GeneralComplete name : D:\Downloads\TRUSTcompany - Heart In My Hands 1080p.mp4Format : MPEG-4Format profile : Base Media / Version 2Codec ID : mp42File size : 86.9 MiBDuration : 3mn 15sOverall bit rate mode : VariableOverall bit rate : 3 723 KbpsEncoded date : UTC 2010-12-14 18:29:39Tagged date : UTC 2010-12-14 18:29:39gsst : 0gstd : 195771gssd : B4A7D0705HH1292503077123581gshh : v21.lscache5.c.youtube.com
VideoID : 1Format : AVCFormat/Info : Advanced Video CodecFormat profile : [email protected] settings, CABAC : YesFormat settings, ReFrames : 1 frameCodec ID : avc1Codec ID/Info : Advanced Video CodingDuration : 3mn 15sBit rate : 3 590 KbpsMaximum bit rate : 7 488 KbpsWidth : 1 920 pixelsHeight : 1 080 pixelsDisplay aspect ratio : 16:9Frame rate mode : VariableFrame rate : 23.976 fpsMinimum frame rate : 17.241 fpsMaximum frame rate : 24.390 fpsColor space : YUVChroma subsampling : 4:2:0Bit depth : 8 bitsScan type : ProgressiveBits/(Pixel*Frame) : 0.072Stream size : 83.8 MiB (96%)Tagged date : UTC 2010-12-14 18:29:44
AudioID : 2Format : AACFormat/Info : Advanced Audio CodecFormat profile : LCCodec ID : 40Duration : 3mn 15sBit rate mode : VariableBit rate : 128 KbpsMaximum bit rate : 179 KbpsChannel(s) : 2 channelsChannel positions : Front: L RSampling rate : 44.1 KHzCompression mode : LossyStream size : 2.98 MiB (3%)Title : (C) 2007 Google Inc. v08.13.2007.Encoded date : UTC 2010-12-14 18:29:42Tagged date : UTC 2010-12-14 18:29:44

Скриншоты

Other forum [Profile] [PM]
Display posts from previous:    
Reply to topic

The time now is: Today 04:37

All times are GMT + 3 Hours



You cannot post new topics in this forum
You cannot reply to topics in this forum
You cannot edit your posts in this forum
You cannot delete your posts in this forum
You cannot vote in polls in this forum
You cannot attach files in this forum
You cannot download files in this forum