Today is a free download without charge Download

Эксперимент с ужасом / Experiment in Terror (Блейк Эдвардс / Blake Edwards) [1962, США, триллер, детектив, BDRip 1080p] MVO (1-й канал, 2009 год) + AVO (Сонькин) + Sub Eng + Original Eng

Reply to topic
 
Author
Message

Omen ®

Longevity: 8 years 5 months

Posts: 181087

Торрент-статистика

Post 23-Jan-2013 13:32

[Quote]

Эксперимент с ужасом / Experiment in Terror- -Страна: США
Студия: Columbia Pictures Corporation / Geoffrey-Kate Productions
Жанр: триллер, детектив
Год выпуска: 1962
Продолжительность: 02:03:21-Перевод 1: Профессиональный (многоголосый закадровый) - 1-й канал, 2009 год
Перевод 2: Авторский (одноголосый закадровый) Сонькин
Cубтитры: английские
Оригинальная аудиодорожка: английский-Режиссер: Блейк Эдвардс / Blake Edwards
Сценарий: Гордон Гордон, Милдред Гордон
Продюсер: Блейк Эдвардс, Дон Питерс
Оператор: Филип Х. Лэтроп
Композитор: Генри Манчини
Художник: Роберт Петерсон, Джеймс Кроу
Монтаж: Патрик МакКормак
В ролях: Гленн Форд / Glenn Ford. Ли Ремик / Lee Remick. Стефани Пауэрс / Stefanie Powers. Рой Пул / Roy Poole. Нед Гласс / Ned Glass. Анита Лу / Anita Loo. Патрисия Хьюстон / Patricia Huston. Гилберт Грин / Gilbert Green. Клифтон Джеймс / Clifton James. Аль Авалон / Al Avalon. Уильям Брайант / William Bryant. Росс Мартин / Ross Martin. Джоанн Барис / Joanne Bahris. Барбара Коллентайн / Barbara Collentine. Клэр Грисволд / Claire Griswold. Мари Линн / Mari Lynn.-Описание:
№1 Сан-Франциско. Молодую сотрудницу банка Келли Шервуд, поздно возвращавшуюся домой, захватывает неизвестный мужчина. Он приказывает ей украсть из банка 100 000 долларов. Если Келли откажется - ее младшую сестру Тоби ждет смерть. Преступник знает все вплоть до самых мельчайших подробностей о жизни семьи Шервуд. В отчаянии Келли обращается в ФБР, но преступник, сразу же узнав об этом, похищает Тоби. Сотрудники ФБР отчаянно пытаются спасти девушку, но похититель хитер и коварен...
№2 Захватывающая история о том, как девушку и ее сестру терроризирует преступник, планирующий ограбление, в то время, как ФБР отчаянно пытается предотвратить трагедию. Великолепная и необычная операторская работа в районах Сан-Франциско. (М. Иванов).
№3 Молодая работница банка Келли поздно возвращается домой. В гараже на неё нападает неизвестный и долго говорит с ней, держа сзади за шею. Он приказывает ей украсть из банка 100 000 долларов. Если она откажется, то её сестру ждет мучительная смерть. Преступник знает абсолютно всё о жизни героини Ли Ремик: где она живет, где работает, где учится её сестра и т.д. В отчаянии Келли обращается в ФБР, но преступник сразу же узнает об этом и грозится убить её сестру...-Сэмпл-Тип релиза: BDRip 1080p рип PSYCHD
Контейнер: MKV
Видео: AVC (x264) [email protected] fps ~ 9906 kBit/s 1.85:1
Аудио 1: MVO AC3 192 kBit/s 48 kHz 2.0 DD
Аудио 2: AVO AC3 192 kBit/s 48 kHz 2.0 DD
Аудио 3: English DTS 1509 kBit/s 48 kHz 6 ch.

MediaInfo

General
Unique ID : 233957668057248279703992098712409736638 (0xB0029B9CE9A08C58822BBB78B34A05BE)
Complete name : D:\Experiment.in.Terror.1962.1080p.BluRay.x264-PSYCHD\Experiment in terror.mkv
Format : Matroska
Format version : Version 2
File size : 10.2 GiB
Duration : 2h 3mn
Overall bit rate : 11.8 Mbps
Encoded date : UTC 2013-01-20 15:18:11
Writing application : mkvmerge v5.6.0 ('Kenya Kane') built on May 27 2012 16:44:04
Writing library : libebml v1.2.3 + libmatroska v1.3.0
Video
ID : 1
Format : AVC
Format/Info : Advanced Video Codec
Format profile : [email protected]
Format settings, CABAC : Yes
Format settings, ReFrames : 4 frames
Codec ID : V_MPEG4/ISO/AVC
Duration : 2h 3mn
Bit rate : 9 906 Kbps
Width : 1 920 pixels
Height : 1 040 pixels
Display aspect ratio : 1.85:1
Frame rate mode : Constant
Frame rate : 23.976 fps
Color space : YUV
Chroma subsampling : 4:2:0
Bit depth : 8 bits
Scan type : Progressive
Bits/(Pixel*Frame) : 0.207
Stream size : 8.34 GiB (82%)
Writing library : x264 core 129 r2230 1cffe9f
Encoding settings : cabac=1 / ref=4 / deblock=1:0:0 / analyse=0x3:0x113 / me=umh / subme=8 / psy=1 / psy_rd=1.00:0.00 / mixed_ref=1 / me_range=16 / chroma_me=1 / trellis=1 / 8x8dct=1 / cqm=0 / deadzone=21,11 / fast_pskip=1 / chroma_qp_offset=-2 / threads=12 / lookahead_threads=2 / sliced_threads=0 / nr=0 / decimate=1 / interlaced=0 / bluray_compat=0 / constrained_intra=0 / bframes=3 / b_pyramid=2 / b_adapt=2 / b_bias=0 / direct=3 / weightb=1 / open_gop=0 / weightp=2 / keyint=240 / keyint_min=24 / scenecut=40 / intra_refresh=0 / rc_lookahead=50 / rc=2pass / mbtree=1 / bitrate=9906 / ratetol=1.0 / qcomp=0.60 / qpmin=0 / qpmax=69 / qpstep=4 / cplxblur=20.0 / qblur=0.5 / ip_ratio=1.40 / aq=1:1.00
Language : English
Default : Yes
Forced : No
Audio #1
ID : 2
Format : AC-3
Format/Info : Audio Coding 3
Mode extension : CM (complete main)
Format settings, Endianness : Big
Codec ID : A_AC3
Duration : 2h 3mn
Bit rate mode : Constant
Bit rate : 192 Kbps
Channel(s) : 2 channels
Channel positions : Front: L R
Sampling rate : 48.0 KHz
Bit depth : 16 bits
Compression mode : Lossy
Stream size : 169 MiB (2%)
Title : MVO AC3 192 kBit/s 48 kHz 2.0 DD
Language : Russian
Default : No
Forced : No
Audio #2
ID : 3
Format : AC-3
Format/Info : Audio Coding 3
Mode extension : CM (complete main)
Format settings, Endianness : Big
Codec ID : A_AC3
Duration : 2h 3mn
Bit rate mode : Constant
Bit rate : 192 Kbps
Channel(s) : 2 channels
Channel positions : Front: L R
Sampling rate : 48.0 KHz
Bit depth : 16 bits
Compression mode : Lossy
Stream size : 169 MiB (2%)
Title : AVO AC3 192 kBit/s 48 kHz 2.0 DD
Language : Russian
Default : No
Forced : No
Audio #3
ID : 4
Format : DTS
Format/Info : Digital Theater Systems
Mode : 16
Format settings, Endianness : Big
Codec ID : A_DTS
Duration : 2h 3mn
Bit rate mode : Constant
Bit rate : 1 509 Kbps
Channel(s) : 6 channels
Channel positions : Front: L C R, Side: L R, LFE
Sampling rate : 48.0 KHz
Bit depth : 24 bits
Compression mode : Lossy
Stream size : 1.30 GiB (13%)
Language : English
Default : Yes
Forced : No
Text
ID : 5
Format : UTF-8
Codec ID : S_TEXT/UTF8
Codec ID/Info : UTF-8 Plain Text
Language : English
Default : No
Forced : No
Menu
00:00:00.000 : en:00:00:00.000
00:16:15.683 : en:00:16:15.683
00:25:05.754 : en:00:25:05.754
00:41:57.598 : en:00:41:57.598
00:49:17.746 : en:00:49:17.746
00:54:02.030 : en:00:54:02.030
01:05:18.832 : en:01:05:18.832
01:13:46.422 : en:01:13:46.422
01:25:02.180 : en:01:25:02.180
01:33:56.631 : en:01:33:56.631
01:48:12.861 : en:01:48:12.861
01:55:59.369 : en:01:55:59.369

Скриншоты


Торрент изменён (23.01.2013) - заменены субтитры, стаю на раздачи обоих файлов (все кто начал качать старый докачают)
Other forum [Profile] [PM]
Display posts from previous:    
Reply to topic

The time now is: Today 10:12

All times are GMT + 3 Hours



You cannot post new topics in this forum
You cannot reply to topics in this forum
You cannot edit your posts in this forum
You cannot delete your posts in this forum
You cannot vote in polls in this forum
You cannot attach files in this forum
You cannot download files in this forum