Today is a free download without charge Download

Французский поцелуй / French Kiss (Лоуренс Кэздан / Lawrence Kasdan) [1995, Великобритания, США, Мелодрама, комедия, BDRip 720p] MVO (ОРТ) + DVO (Екатеринбург-Арт) + AVO (Ю.Живов) + AVO (П.Карцев) + Sub Eng + Original Eng

Reply to topic
 
Author
Message

Omen ®

Longevity: 8 years 5 months

Posts: 181087

Торрент-статистика

Post 23-Jan-2013 13:32

[Quote]

Французский поцелуй / French Kiss
Страна: Великобритания, США
Жанр: Мелодрама, комедия
Год выпуска: 1995
Продолжительность: 01:51:13
Перевод 1: Профессиональный (многоголосый закадровый) ОРТ
Перевод 2: Профессиональный (двухголосый закадровый) Екатеринбург-Арт
Перевод 3: Авторский (одноголосый закадровый) Ю.Живов
Перевод 4: Авторский (одноголосый закадровый) П.Карцев
Cубтитры: английские
Оригинальная аудиодорожка: английский
Режиссер: Лоуренс Кэздан / Lawrence Kasdan
В ролях: Мег Райан, Кевин Клайн, Тимоти Хаттон, Жан Рено, Франсуа Клюзе, Рени Хамфри, Майкл Райли, Элизабет Коммелин, Сюзен Анбе, Лорен Шпильфогель, Виктор Гарривье, Микель Браун, Луиз Дешам, Клаудио Тодесчини, Джерри Харт, Джоэнна Павлис, Барбара Шульц, Клеман Сибони, Адам Брукс, Филипп Гарнье, Жан Корсо, Майк Джонс, Мари-Кристин Адам, Фаусто Костантино, Доминик Ренье, Инге Офферман, Николас Хоутри, Вольфганг Писсорс, Никола Оберманн, Дороти Пикард, Жан Эллейн.
Описание: Чарли уезжает в Париж на конференцию, а его невеста не летит с ним из-за страха перед самолетами. Через несколько дней он звонит ей и сообщает, что полюбил другую. Кейт сразу же прыгает в самолет, и страх ей помогает преодолеть грубоватый француз — Люк, оказавшийся вором и контрабандистом, положившим в ее сумочку дорогое ожерелье, чтобы избежать трудностей на таможне. В итоге Кейт и Люк влюбляются друг в друга…
Сэмпл
Тип релиза: BDRip 720p
Контейнер: MKV
Видео: MPEG-4 AVC; 1280x544; 5673 Kbps; 23,976 fps
Аудио 1: Russian: AC3; 192 Kbps; 2 ch; 48 khz - MVO, ОРТ
Аудио 2: Russian: AC3; 192 Kbps; 2 ch; 48 khz - DVO, Екатеринбург-Арт
Аудио 3: Russian: AC3; 384 Kbps; 6 ch; 48 khz - AVO, Ю.Живов
Аудио 4: Russian: AC3; 192 Kbps; 2 ch; 48 khz - AVO, П.Карцев
Аудио 5: English: DTS; 1510 kbps 6 ch; 48 kHz; 24-bit
Формат субтитров: softsub (SRT)

MediaInfo

General
Unique ID : 236058640119378594280680919363334328037 (0xB1973D887A1E4CAFA84E65FEDADA4EE5)
Complete name : French.Kiss.1995.x264.BDRip720p.mkv
Format : Matroska
Format version : Version 4 / Version 2
File size : 6.33 GiB
Duration : 1h 51mn
Overall bit rate : 8 144 Kbps
Movie name : French.Kiss.1995.x264.BDRip720p BDA
Encoded date : UTC 2010-02-22 21:41:31
Writing application : mkvmerge v5.9.0 ('On The Loose') built on Dec 9 2012 15:37:01
Writing library : libebml v1.3.0 + libmatroska v1.4.0
Video
ID : 1
Format : AVC
Format/Info : Advanced Video Codec
Format profile : [email protected]
Format settings, CABAC : Yes
Format settings, ReFrames : 8 frames
Codec ID : V_MPEG4/ISO/AVC
Duration : 1h 51mn
Bit rate : 5 673 Kbps
Width : 1 280 pixels
Height : 544 pixels
Display aspect ratio : 2.35:1
Frame rate mode : Constant
Frame rate : 23.976 fps
Color space : YUV
Chroma subsampling : 4:2:0
Bit depth : 8 bits
Scan type : Progressive
Bits/(Pixel*Frame) : 0.340
Stream size : 4.28 GiB (68%)
Title : French.Kiss.1995.x264.BDRip720p
Writing library : x264 core 129 r2230 1cffe9f
Encoding settings : cabac=1 / ref=8 / deblock=1:-3:-3 / analyse=0x3:0x133 / me=umh / subme=9 / psy=1 / psy_rd=1.00:0.00 / mixed_ref=1 / me_range=24 / chroma_me=1 / trellis=2 / 8x8dct=1 / cqm=0 / deadzone=21,11 / fast_pskip=1 / chroma_qp_offset=-2 / threads=12 / lookahead_threads=2 / sliced_threads=0 / nr=0 / decimate=1 / interlaced=0 / bluray_compat=0 / constrained_intra=0 / bframes=3 / b_pyramid=2 / b_adapt=2 / b_bias=0 / direct=3 / weightb=1 / open_gop=0 / weightp=2 / keyint=240 / keyint_min=23 / scenecut=40 / intra_refresh=0 / rc_lookahead=60 / rc=2pass / mbtree=1 / bitrate=5673 / ratetol=1.0 / qcomp=0.60 / qpmin=10 / qpmax=51 / qpstep=4 / cplxblur=20.0 / qblur=0.5 / vbv_maxrate=40000 / vbv_bufsize=40000 / nal_hrd=none / ip_ratio=1.40 / aq=1:1.00
Language : English
Default : Yes
Forced : No
Audio #1
ID : 2
Format : AC-3
Format/Info : Audio Coding 3
Mode extension : CM (complete main)
Format settings, Endianness : Big
Codec ID : A_AC3
Duration : 1h 51mn
Bit rate mode : Constant
Bit rate : 192 Kbps
Channel(s) : 2 channels
Channel positions : Front: L R
Sampling rate : 48.0 KHz
Bit depth : 16 bits
Compression mode : Lossy
Stream size : 153 MiB (2%)
Title : многоголосый, ОРТ
Language : Russian
Default : Yes
Forced : No
Audio #2
ID : 3
Format : AC-3
Format/Info : Audio Coding 3
Mode extension : CM (complete main)
Format settings, Endianness : Big
Codec ID : A_AC3
Duration : 1h 51mn
Bit rate mode : Constant
Bit rate : 192 Kbps
Channel(s) : 2 channels
Channel positions : Front: L R
Sampling rate : 48.0 KHz
Bit depth : 16 bits
Compression mode : Lossy
Stream size : 153 MiB (2%)
Title : двухголосый, Екатеринбург-Арт
Language : Russian
Default : No
Forced : No
Audio #3
ID : 4
Format : AC-3
Format/Info : Audio Coding 3
Mode extension : CM (complete main)
Format settings, Endianness : Big
Codec ID : A_AC3
Duration : 1h 51mn
Bit rate mode : Constant
Bit rate : 384 Kbps
Channel(s) : 6 channels
Channel positions : Front: L C R, Side: L R, LFE
Sampling rate : 48.0 KHz
Bit depth : 16 bits
Compression mode : Lossy
Stream size : 305 MiB (5%)
Title : Живов
Language : Russian
Default : No
Forced : No
Audio #4
ID : 5
Format : AC-3
Format/Info : Audio Coding 3
Mode extension : CM (complete main)
Format settings, Endianness : Big
Codec ID : A_AC3
Duration : 1h 51mn
Bit rate mode : Constant
Bit rate : 192 Kbps
Channel(s) : 2 channels
Channel positions : Front: L R
Sampling rate : 48.0 KHz
Bit depth : 16 bits
Compression mode : Lossy
Stream size : 153 MiB (2%)
Title : Карцев
Language : Russian
Default : No
Forced : No
Audio #5
ID : 6
Format : DTS
Format/Info : Digital Theater Systems
Mode : 16
Format settings, Endianness : Big
Codec ID : A_DTS
Duration : 1h 51mn
Bit rate mode : Constant
Bit rate : 1 509 Kbps
Channel(s) : 6 channels
Channel positions : Front: L C R, Side: L R, LFE
Sampling rate : 48.0 KHz
Bit depth : 24 bits
Compression mode : Lossy
Stream size : 1.17 GiB (19%)
Language : English
Default : No
Forced : No
Text
ID : 7
Format : UTF-8
Codec ID : S_TEXT/UTF8
Codec ID/Info : UTF-8 Plain Text
Language : English
Default : No
Forced : No
Menu
00:00:00.000 : en:00:00:00.000
00:07:55.641 : en:00:07:55.641
00:10:00.266 : en:00:10:00.266
00:15:53.410 : en:00:15:53.410
00:21:43.844 : en:00:21:43.844
00:24:15.704 : en:00:24:15.704
00:30:33.164 : en:00:30:33.164
00:35:13.152 : en:00:35:13.152
00:39:37.500 : en:00:39:37.500
00:44:16.570 : en:00:44:16.570
00:50:25.147 : en:00:50:25.147
00:56:33.431 : en:00:56:33.431
01:01:14.170 : en:01:01:14.170
01:06:08.297 : en:01:06:08.297
01:13:22.106 : en:01:13:22.106
01:17:17.257 : en:01:17:17.257
01:21:08.280 : en:01:21:08.280
01:27:26.824 : en:01:27:26.824
01:34:28.162 : en:01:34:28.162
01:38:29.278 : en:01:38:29.278
01:42:53.584 : en:01:42:53.584
01:44:41.942 : en:01:44:41.942

x264

---[NoImage] avs [info]: 1280x544p 1:1 @ 24000/1001 fps (cfr)
---[NoImage] x264 [info]: using SAR=1/1
---[NoImage] x264 [info]: using cpu capabilities: MMX2 SSE2Fast SSSE3 FastShuffle SSE4.2
---[NoImage] x264 [warning]: direct=auto not used on the first pass
---[NoImage] x264 [info]: profile High, level 4.1
---[NoImage]
---[NoImage] x264 [info]: frame I:1239 Avg QP:15.12 size:126095
---[NoImage] x264 [info]: frame P:43102 Avg QP:17.03 size: 51823
---[NoImage] x264 [info]: frame B:115651 Avg QP:19.35 size: 20250
---[NoImage] x264 [info]: consecutive B-frames: 1.3% 2.6% 13.2% 83.0%
---[NoImage] x264 [info]: mb I I16..4: 2.9% 84.7% 12.4%
---[NoImage] x264 [info]: mb P I16..4: 0.3% 10.0% 0.8% P16..4: 35.3% 29.7% 19.2% 1.0% 0.2% skip: 3.5%
---[NoImage] x264 [info]: mb B I16..4: 0.0% 1.5% 0.1% B16..8: 50.0% 16.9% 5.8% direct: 7.0% skip:18.8% L0:40.5% L1:38.5% BI:21.0%
---[NoImage] x264 [info]: 8x8 transform intra:90.1% inter:57.4%
---[NoImage] x264 [info]: direct mvs spatial:28.7% temporal:71.3%
---[NoImage] x264 [info]: coded y,uvDC,uvAC intra: 97.1% 93.7% 76.5% inter: 46.3% 41.8% 10.1%
---[NoImage] x264 [info]: i16 v,h,dc,p: 39% 30% 5% 26%
---[NoImage] x264 [info]: i8 v,h,dc,ddl,ddr,vr,hd,vl,hu: 12% 9% 7% 9% 14% 13% 13% 12% 12%
---[NoImage] x264 [info]: i4 v,h,dc,ddl,ddr,vr,hd,vl,hu: 10% 10% 3% 9% 16% 15% 15% 11% 12%
---[NoImage] x264 [info]: i8c dc,h,v,p: 44% 19% 19% 18%
---[NoImage] x264 [info]: Weighted P-Frames: Y:4.2% UV:1.2%
---[NoImage] x264 [info]: ref P L0: 39.2% 12.1% 19.3% 8.0% 7.3% 5.1% 5.2% 3.2% 0.6% 0.0%
---[NoImage] x264 [info]: ref B L0: 72.8% 13.7% 5.6% 3.3% 2.2% 1.6% 0.9%
---[NoImage] x264 [info]: ref B L1: 93.9% 6.1%
---[NoImage] x264 [info]: kb/s:5672.76
---[NoImage] encoded 159992 frames, 8.07 fps, 5672.76 kb/s

Скриншоты


Other forum [Profile] [PM]
Display posts from previous:    
Reply to topic

The time now is: Today 02:30

All times are GMT + 3 Hours



You cannot post new topics in this forum
You cannot reply to topics in this forum
You cannot edit your posts in this forum
You cannot delete your posts in this forum
You cannot vote in polls in this forum
You cannot attach files in this forum
You cannot download files in this forum