Today is a free download without charge Download

Встречное течение (8 серий из 8) (2011) DVD9

Reply to topic
 
Author
Message

Omen ®

Longevity: 8 years 11 months

Posts: 181086

Торрент-статистика

Post 23-Jan-2013 07:44

[Quote]

-Встречное течение (8 серий из 8) (2011) DVD9- Русское название: Встречное течение
Год выпуска: 2011
Производство: Россия, Кинокомпания " Всемирные Русские Студии"
Жанр: Комедия, детектив
Язык: Оригинал (русский)
Субтитры: Отсутствуют-Дата российской премьеры: 22 августа 2011
Дата выхода DVD релиза: 15 ноября 2011-Режиссер: Кирилл Капица
Актеры: Игорь Ботвин, Мария Капустинская, Дмитрий Луговкин, Михаил Разумовский, Ярослав Иванов, Евгения Игумнова, Вадим Сквирский, Анна Фомина, Геннадий Алимпиев, Александр Ронис, Наталья Высочанская, Вадим Романов, Алексей Федькин, Лана Паули, Анна Пескова, Максим Меркулов, Александр Иванов (V), Наталья Щербакова, Михаил Морозов, Светлана Смирнова, Дмитрий Сутырин, Марина Старых, Филипп Азаров, Александр Баргман
Описание фильма:
Действие сериала разворачивается и в Петербурге, с его многочисленными реками, каналами, мостами, пляжами, и в акватории Финского залива. Старший сержант Игорь Волошин, откомандирован на службу в Санкт-Петербург, чтобы помочь местной водной милиции. Попав в новые для себя условия, он старается на деле показать свой профессионализм и заслужить уважение командира, капитана Маринина, и неутомимо ищет расположения очаровательной Оксаны - третьего участника команды. Каждая серия - это отдельная история, в которой герои расследуют очередное происшествие. Им приходится столкнуться с утопленником, решившим отомстить своим убийцам, спасти город от серии отравлений, найти общий язык с необычным свидетелем - собакой. Без приключений не проходит ни дня их насыщенной жизни, которая, помимо служебных забот, полна еще и личных переживаний...- -Продолжительность: 8 х ~ 00:45:00
Качество видео: DVD9
Видеокодек: MPEG-2
Битрейт видео: ~8000 Кбит/сек
Размер кадра: 720х[email protected]
Аудиокодек: AC3 2.0
Битрейт аудио: AC3, 2 ch, 192 Кбит/с - русский

Дополнительно

Отсутствует

MediaInfo

Общее
Полное имя : G:\Vstrechnoe.techenie.(1-8.serii.iz.8).2011.DVD9\VIDEO_TS\VTS_01_8.VOB
Формат : MPEG-PS
Размер файла : 76,8 Мбайт
Продолжительность : 5 м. 4 с.
Общий поток : 2115 Кбит/сек
Видео
Идентификатор : 224 (0xE0)
Формат : MPEG Video
Версия формата : Version 2
Профиль формата : [email protected]
Параметр BVOP формата : Да
Параметр матрицы формата : По умолчанию
Параметры GOP формата : M=3, N=15
Продолжительность : 5 м. 4 с.
Вид битрейта : Переменный
Битрейт : 1977 Кбит/сек
Номинальный битрейт : 8000 Кбит/сек
Ширина : 720 пикс.
Высота : 576 пикс.
Соотношение сторон : 16:9
Частота кадров : 25,000 кадр/сек
Стандарт вещания : PAL
Цветовое пространство : YUV
Подвыборка цветности : 4:2:0
Битовая глубина : 8 бит
Тип развёртки : Прогрессивная
Метод сжатия : С потерями
Бит/(Пиксели*Кадры) : 0.191
Размер потока : 71,7 Мбайт (93%)
Аудио
Идентификатор : 189 (0xBD)-128 (0x80)
Формат : AC-3
Формат/Информация : Audio Coding 3
Расширение режима : CM (complete main)
Режим смешивания : DVD-Video
Продолжительность : 5 м. 3 с.
Вид битрейта : Постоянный
Битрейт : 96,0 Кбит/сек
Канал(ы) : 2 канала(ов)
Расположение каналов : Front: L R
Частота : 48,0 КГц
Битовая глубина : 16 бит
Метод сжатия : С потерями
Задержка видео : -200 мс.
Размер потока : 3,48 Мбайт (5%)
Меню
Общее
Полное имя : G:\Vstrechnoe.techenie.(1-8.serii.iz.8).2011.DVD9\VIDEO_TS\VTS_01_0.BUP
Формат : DVD Video
Профиль формата : Program
Размер файла : 172 Кбайт
Продолжительность : 6 ч. 12 м.
Общий поток : 63 бит/сек
Видео
Идентификатор : 224 (0xE0)
Формат : MPEG Video
Версия формата : Version 2
Продолжительность : 6 ч. 12 м.
Вид битрейта : Переменный
Ширина : 720 пикс.
Высота : 576 пикс.
Соотношение сторон : 16:9
Частота кадров : 25,000 кадр/сек
Стандарт вещания : PAL
Метод сжатия : С потерями
Аудио
Идентификатор : 128 (0x80)
Формат : AC-3
Формат/Информация : Audio Coding 3
Продолжительность : 6 ч. 12 м.
Канал(ы) : 2 канала(ов)
Частота : 48,0 КГц
Метод сжатия : С потерями
Язык : English
Меню
Продолжительность : 6 ч. 12 м.
00:00:00.000 : Chapter 1
00:09:59.960 : Chapter 2
00:22:00.200 : Chapter 3
00:35:00.040 : Chapter 4
00:45:39.640 : Chapter 5
00:55:39.560 : Chapter 6
01:07:39.520 : Chapter 7
01:20:39.760 : Chapter 8
01:32:07.360 : Chapter 9
01:42:07.160 : Chapter 10
01:54:07.520 : Chapter 11
02:07:07.600 : Chapter 12
02:18:49.760 : Chapter 13
02:28:49.640 : Chapter 14
02:40:49.560 : Chapter 15
02:53:49.800 : Chapter 16
03:06:11.600 : Chapter 17
03:16:11.880 : Chapter 18
03:28:11.440 : Chapter 19
03:41:11.720 : Chapter 20
03:52:48.040 : Chapter 21
04:02:48.040 : Chapter 22
04:14:48.120 : Chapter 23
04:27:48.120 : Chapter 24
04:39:24.520 : Chapter 25
04:49:24.800 : Chapter 26
05:01:24.600 : Chapter 27
05:14:24.320 : Chapter 28
05:25:50.400 : Chapter 29
05:35:50.120 : Chapter 30
05:47:50.120 : Chapter 31
06:00:50.240 : Chapter 32
List (Audio) : 0
Общее
Полное имя : G:\Vstrechnoe.techenie.(1-8.serii.iz.8).2011.DVD9\VIDEO_TS\VTS_01_0.IFO
Формат : DVD Video
Профиль формата : Program
Размер файла : 172 Кбайт
Продолжительность : 6 ч. 12 м.
Общий поток : 63 бит/сек
Видео
Идентификатор : 224 (0xE0)
Формат : MPEG Video
Версия формата : Version 2
Продолжительность : 6 ч. 12 м.
Вид битрейта : Переменный
Ширина : 720 пикс.
Высота : 576 пикс.
Соотношение сторон : 16:9
Частота кадров : 25,000 кадр/сек
Стандарт вещания : PAL
Метод сжатия : С потерями
Аудио
Идентификатор : 128 (0x80)
Формат : AC-3
Формат/Информация : Audio Coding 3
Продолжительность : 6 ч. 12 м.
Канал(ы) : 2 канала(ов)
Частота : 48,0 КГц
Метод сжатия : С потерями
Язык : English
Меню
Продолжительность : 6 ч. 12 м.
00:00:00.000 : Chapter 1
00:09:59.960 : Chapter 2
00:22:00.200 : Chapter 3
00:35:00.040 : Chapter 4
00:45:39.640 : Chapter 5
00:55:39.560 : Chapter 6
01:07:39.520 : Chapter 7
01:20:39.760 : Chapter 8
01:32:07.360 : Chapter 9
01:42:07.160 : Chapter 10
01:54:07.520 : Chapter 11
02:07:07.600 : Chapter 12
02:18:49.760 : Chapter 13
02:28:49.640 : Chapter 14
02:40:49.560 : Chapter 15
02:53:49.800 : Chapter 16
03:06:11.600 : Chapter 17
03:16:11.880 : Chapter 18
03:28:11.440 : Chapter 19
03:41:11.720 : Chapter 20
03:52:48.040 : Chapter 21
04:02:48.040 : Chapter 22
04:14:48.120 : Chapter 23
04:27:48.120 : Chapter 24
04:39:24.520 : Chapter 25
04:49:24.800 : Chapter 26
05:01:24.600 : Chapter 27
05:14:24.320 : Chapter 28
05:25:50.400 : Chapter 29
05:35:50.120 : Chapter 30
05:47:50.120 : Chapter 31
06:00:50.240 : Chapter 32
List (Audio) : 0
Скриншоты:
     
       
Other forum [Profile] [PM]
Display posts from previous:    
Reply to topic

The time now is: Today 15:20

All times are GMT + 3 Hours



You cannot post new topics in this forum
You cannot reply to topics in this forum
You cannot edit your posts in this forum
You cannot delete your posts in this forum
You cannot vote in polls in this forum
You cannot attach files in this forum
You cannot download files in this forum