Today is a free download without charge Download

Синдром Феникса (4 серии из 4) (2009) DVD9

Reply to topic
 
Author
Message

Omen ®

Longevity: 8 years 11 months

Posts: 181086

Торрент-статистика

Post 23-Jan-2013 07:44

[Quote]

-Синдром Феникса (4 серии из 4) (2009) DVD9- Русское название: Синдром Феникса
Год выпуска: 2009
Производство: Россия, Pro Cinema Production
Жанр: Комедия
Язык: Оригинал (русский)
Субтитры: Отсутствуют-Дата российской премьеры: 19 октября 2009
Дата выхода DVD релиза: 12 ноября 2009-Режиссер: Сергей Соколюк
Актеры: Ольга Будина, Георгий Дронов, Роман Мадянов, Александр Демидов, Камиль Ларин, Галина Польских, Максим Лагашкин, Анна Ардова, Владимир Скворцов, Анна Невская, Александр Робак, Александр Числов, Андрей Кайков, Юрий Ваксман, Юрий Думчев, Павел Винник, Елена Куликова, Ольга Сташкевич, Алина Волощук, Игорь Мещерин, Вячеслав Глушков, Станислав Курач, Евгений Москалев, Роман Крюков
Описание фильма:
В небольшом городке Чихове, где все друг друга знают, царит спокойствие и безмятежность. Привычное течение однообразных будней горожан внезапно нарушает неожиданное появление бродяги-незнакомца Гоши, который совершенно ничего не помнит о своей прошлой жизни. Десятилетний сынишка местной продавщицы Татьяны, Толик, хочет помочь бездомному вернуть память и уговаривает мать временно приютить бедолагу. Но каково же удивление жителей Чихова, когда они узнают, что у Гоши «синдром Феникса»: при виде огня он теряет память, а в себя приходит совершенно в ином амплуа…- -Продолжительность: 4 х ~ 00:50:00
Качество видео: DVD9
Видеокодек: MPEG-2
Битрейт видео: ~5107 Кбит/сек
Размер кадра: 720х[email protected]
Аудиокодек: AC3 2.0
Битрейт аудио: AC3, 2 ch, 192 Кбит/с - русский

Дополнительно

• Смотрите на DVD

MediaInfo

Общее
Полное имя : G:\Sindrom.Feniksa.(1-4.serii.iz.4).2009.DVD9\VIDEO_TS\VTS_01_1.VOB
Формат : MPEG-PS
Размер файла : 1024 Мбайт
Продолжительность : 26 м.
Общий поток : 5407 Кбит/сек
Видео
Идентификатор : 224 (0xE0)
Формат : MPEG Video
Версия формата : Version 2
Профиль формата : [email protected]
Параметр BVOP формата : Да
Параметр матрицы формата : По умолчанию
Продолжительность : 26 м.
Вид битрейта : Переменный
Битрейт : 5107 Кбит/сек
Номинальный битрейт : 9000 Кбит/сек
Ширина : 720 пикс.
Высота : 576 пикс.
Соотношение сторон : 4:3
Частота кадров : 25,000 кадр/сек
Стандарт вещания : PAL
Цветовое пространство : YUV
Подвыборка цветности : 4:2:0
Битовая глубина : 8 бит
Тип развёртки : Чересстрочная
Порядок развёртки : Верхнее поле первое
Метод сжатия : С потерями
Бит/(Пиксели*Кадры) : 0.493
Размер потока : 967 Мбайт (94%)
Аудио
Идентификатор : 189 (0xBD)-128 (0x80)
Формат : AC-3
Формат/Информация : Audio Coding 3
Расширение режима : CM (complete main)
Режим смешивания : DVD-Video
Продолжительность : 26 м.
Вид битрейта : Постоянный
Битрейт : 192 Кбит/сек
Канал(ы) : 2 канала(ов)
Расположение каналов : Front: L R
Частота : 48,0 КГц
Битовая глубина : 16 бит
Метод сжатия : С потерями
Размер потока : 36,3 Мбайт (4%)
Меню

DVDInfo

Title: HITACHI
Size: 7.17 Gb ( 7 521 074 KBytes ) - DVD-9
Enabled regions: 1, 2, 3, 4, 5, 6, 7, 8
VTS_01 :
Play Length: 00:48:32+00:47:54+00:48:44+00:48:48
Video: PAL 4:3 (720x576) VBR
Audio:
Russian (Dolby AC3, 2 ch)
Menu Video:
PAL 4:3 (720x576) VBR
Menu Audio:
Not specified (Dolby AC3, 2 ch)
Menu Subtitles:
Not specified
Menu Russian Language Unit :
Root Menu
Скриншоты:
               
Other forum [Profile] [PM]
Display posts from previous:    
Reply to topic

The time now is: Today 14:27

All times are GMT + 3 Hours



You cannot post new topics in this forum
You cannot reply to topics in this forum
You cannot edit your posts in this forum
You cannot delete your posts in this forum
You cannot vote in polls in this forum
You cannot attach files in this forum
You cannot download files in this forum