Today is a free download without charge Download

Чистокровный / Blooded (Эдвард Боз / Edward Boase) [2011, Великобритания, ужасы, триллер, BDRip 1080p] DVO (Чип и Дейл) + Original (Eng)

Reply to topic
 
Author
Message

Omen ®

Longevity: 8 years 5 months

Posts: 181087

Торрент-статистика

Post 23-Jan-2013 05:20

[Quote]

Чистокровный / Blooded Страна: Великобритания
Студия: Magma Pictures, Ptarmigan ACP
Жанр: ужасы, триллер
Год выпуска: 2011
Продолжительность: 01:19:41
Перевод: Любительский (двухголосый закадровый) Чип и Дейл
Cубтитры: нет
Оригинальная аудиодорожка: английский
Режиссер: Эдвард Боз / Edward Boase
В ролях: Ник Эшдон, Нил МакДермотт, Оливер Бут, Марк Декстер, Tracy Ifeachor, Шарон Дункан-Брюстер, Джозеф Клоска, Адам Бест, Джей Тейлор, Сисели Теннант
Описание:
Действия фильма происходят в 2005 году в горах Шотландии. Пятеро незнакомых друг другу молодых людей были похищены незнакомцами, все пятеро похищенных приходят в себя на незнакомой им местности, они раздеты догола и совершенно не помнят, как оказались тут. Вскоре они понимают, что принимают участие в смертельной игре на выживание в качестве живых мишеней…
- || -Тип релиза: BDRip 1080p (рип от MySilu)
Контейнер: MKV
Видео: AVC (x264), 1920x1080 (16:9) at 24,000 fps, 10300 Кbps, 0.207 bpp
Аудио 1: AC3; 192 Kbps; CBR; 2 ch; 48 khz | DVO - Чип и Дейл |
Аудио 2: DTS; 1536 Kbps; CBR; 6 ch; 48 khz; 24 bit | Английский |
Формат субтитров: softsub (SRT)

Скриншоты || x264 Info || MediaInfo || Notes

Notes:

Цитата:
  • Аудио дорожка №1 взята с этой раздачи thx: arxivariys

MediaInfo

Код:
Общее
Уникальный идентификатор                 : 233483067763722930051371285949290178041 (0xAFA7340309B4671BA47DBAABF1B4E5F9)
Полное имя                               : Чистокровный.2011.DVO.1080p.BluRay.x264-MySilu.mkv
Формат                                   : Matroska
Версия формата                           : Version 4 / Version 2
Размер файла                             : 6,66 Гбайт
Продолжительность                        : 1 ч. 19 м.
Общий поток                              : 12,0 Мбит/сек
Название фильма                          : profile.php?mode=viewprofile&u=22488948
Дата кодирования                         : UTC 2010-02-22 21:41:31
Программа кодирования                    : mkvmerge v5.9.0 ('On The Loose') built on Dec  9 2012 15:37:01
Библиотека кодирования                   : libebml v1.3.0 + libmatroska v1.4.0
Видео
Идентификатор                            : 1
Формат                                   : AVC
Формат/Информация                        : Advanced Video Codec
Профиль формата                          : [email protected]
Параметр CABAC формата                   : Да
Параметр ReFrames формата                : 4 кадра
Идентификатор кодека                     : V_MPEG4/ISO/AVC
Продолжительность                        : 1 ч. 19 м.
Битрейт                                  : 10,3 Мбит/сек
Ширина                                   : 1920 пикселей
Высота                                   : 1080 пикселей
Соотношение сторон                       : 16:9
Частота кадров                           : 24,000 кадра/сек
Цветовое пространство                    : YUV
Субдискретизация насыщенности            : 4:2:0
Битовая глубина                          : 8 бит
Тип развёртки                            : Прогрессивная
Бит/(Пиксели*Кадры)                      : 0.207
Размер потока                            : 5,58 Гбайт (84%)
Библиотека кодирования                   : x264 core 125 r2208+677+33 3f970d9 tMod+MixAQ [[email protected]:2:0 X86_64]
Настройки программы                      : cabac=1 / ref=4 / deblock=1:-3:-3 / analyse=0x3:0x113 / me=umh / subme=11 / psy=1 / fade_compensate=0.20 / psy_rd=1.10:0.10 / mixed_ref=1 / me_range=48 / chroma_me=1 / trellis=2 / 8x8dct=1 / cqm=0 / deadzone=21,11 / fast_pskip=0 / chroma_qp_offset=-4 / threads=12 / lookahead_threads=2 / sliced_threads=0 / nr=0 / decimate=1 / interlaced=0 / bluray_compat=0 / constrained_intra=0 / fgo=3 / bframes=8 / b_pyramid=2 / b_adapt=2 / b_bias=0 / direct=3 / weightb=1 / open_gop=0 / weightp=2 / keyint=360 / keyint_min=1 / scenecut=40 / intra_refresh=0 / rc_lookahead=240 / rc=2pass / mbtree=1 / bitrate=10277 / ratetol=1.0 / qcomp=0.60 / qpmin=0 / qpmax=69 / qpstep=4 / cplxblur=20.0 / qblur=0.5 / vbv_maxrate=40000 / vbv_bufsize=30000 / nal_hrd=none / ip_ratio=1.40 / aq=3 / aq-strength=0.90 / aq-sensitivity=10.00 / aq-ifactor=1.00 / aq-pfactor=1.00 / aq-bfactor=1.00 / aq2=0
Язык                                     : English
Default                                  : Да
Forced                                   : Нет
Аудио #1
Идентификатор                            : 2
Формат                                   : AC-3
Формат/Информация                        : Audio Coding 3
Расширение режима                        : CM (complete main)
Идентификатор кодека                     : A_AC3
Продолжительность                        : 1 ч. 19 м.
Вид битрейта                             : Постоянный
Битрейт                                  : 192 Кбит/сек
Каналы                                   : 2 канала
Расположение каналов                     : Front: L R
Частота                                  : 48,0 КГц
Битовая глубина                          : 16 бит
Метод сжатия                             : С потерями
Размер потока                            : 109 Мбайт (2%)
Заголовок                                : DVO
Язык                                     : Russian
Default                                  : Да
Forced                                   : Нет
Аудио #2
Идентификатор                            : 3
Формат                                   : DTS
Формат/Информация                        : Digital Theater Systems
Идентификатор кодека                     : A_DTS
Продолжительность                        : 1 ч. 19 м.
Вид битрейта                             : Постоянный
Битрейт                                  : 1510 Кбит/сек
Каналы                                   : 6 каналов
Расположение каналов                     : Front: L C R, Side: L R, LFE
Частота                                  : 48,0 КГц
Битовая глубина                          : 24 бит
Метод сжатия                             : С потерями
Размер потока                            : 860 Мбайт (13%)
Язык                                     : English
Default                                  : Нет
Forced                                   : Нет
Меню
00:00:00.000                             : :Chapter 01
00:08:43.625                             : :Chapter 02
00:14:27.333                             : :Chapter 03
00:20:47.833                             : :Chapter 04
00:28:20.875                             : :Chapter 05
00:35:20.000                             : :Chapter 06
00:40:03.541                             : :Chapter 07
00:48:38.125                             : :Chapter 08
00:54:33.166                             : :Chapter 09
01:07:38.458                             : :Chapter 10
01:12:34.875                             : :Chapter 11
01:15:23.083                             : :Chapter 12
Other forum [Profile] [PM]
Similar theme
Forum Topic Author Torrent Replies Last Post
./templates/default/images/folder_dl.gif FPS (1st Person) S.T.A.L.K.E.R.: Clear Sky / S.T.A.L.K.E.R.: Чистое небо (2008) [Ru/Multi] (1.5.10) Steam-Rip ORiGiNS Clavik
1 | 0

0 | 809

2

2019-08-12 18:52
Clavik Latest
Display posts from previous:    
Reply to topic

The time now is: Today 10:13

All times are GMT + 3 Hours



You cannot post new topics in this forum
You cannot reply to topics in this forum
You cannot edit your posts in this forum
You cannot delete your posts in this forum
You cannot vote in polls in this forum
You cannot attach files in this forum
You cannot download files in this forum