Today is a free download without charge Download

Боксер / Парень из Филадельфии / The Philly Kid (Джейсон Коннери / Jason Connery) [2012, США, боевик, драма, BDRip 1080p] Dub + Original Eng

Reply to topic
 
Author
Message

Omen ®

Longevity: 8 years 5 months

Posts: 181087

Торрент-статистика

Post 23-Jan-2013 05:20

[Quote]

-Боксер / Парень из Филадельфии / The Philly Kid- -Страна: США
Студия: Уэс Чэтэм, Девон Сава, Сара Батлер, Нил МакДонаф, Лаки Джонсон
Жанр: боевик, драма
Год выпуска: 2012
Продолжительность: 01:33:36-Перевод: Закадровый (многоголосый)
Cубтитры: нет
Оригинальная аудиодорожка: английский-Режиссер: Джейсон Коннери / Jason Connery-В ролях: Уэс Чэтэм, Девон Сава, Сара Батлер, Нил МакДонаф, Лаки Джонсон--IMBD | Сэмпл | КиноПоиск |--Описание: После 10-летнего тюремного заключения освобожден под честное слово борец-бывший чемпион Национальной Атлетической Ассоциации. Теперь чтобы спасти жизнь другу он должен сделать невозможное для себя, проиграть в серии борцовских поединков в клетке.-Тип релиза: BDRip 1080p
Контейнер: MKV-Видео: х264 ~11900 kbps 1920х1080 / 23.976 fps / 16:9 / High Profile 4.1
Аудио 1: English DTS 5.1 48 kHz 1536 kbps
Аудио 2: Russian AC3 5.1 48 kHz 448 kbps-

MediaInfo

Код:
General
Unique ID                                : 190864488131997349907245098678478603326 (0x8F9729CE1E1DA615842E87FE5E0E843E)
Complete name                            : D:\Боксер - Парень из Филадельфии.2012.BDRip.1080p.mkv
Format                                   : Matroska
Format version                           : Version 2
File size                                : 9.03 GiB
Duration                                 : 1h 33mn
Overall bit rate                         : 13.8 Mbps
Encoded date                             : UTC 2013-01-21 19:03:00
Writing application                      : mkvmerge v5.6.0 ('Kenya Kane') built on May 27 2012 16:44:04
Writing library                          : libebml v1.2.3 + libmatroska v1.3.0
Video
ID                                       : 1
Format                                   : AVC
Format/Info                              : Advanced Video Codec
Format profile                           : [email protected]
Format settings, CABAC                   : Yes
Format settings, ReFrames                : 4 frames
Codec ID                                 : V_MPEG4/ISO/AVC
Duration                                 : 1h 33mn
Bit rate                                 : 11.9 Mbps
Width                                    : 1 920 pixels
Height                                   : 1 080 pixels
Display aspect ratio                     : 16:9
Frame rate mode                          : Constant
Frame rate                               : 23.976 fps
Color space                              : YUV
Chroma subsampling                       : 4:2:0
Bit depth                                : 8 bits
Scan type                                : Progressive
Bits/(Pixel*Frame)                       : 0.239
Stream size                              : 7.57 GiB (84%)
Title                                    : The.Philly.Kid.2012.Blu-ray.1080p.x264.DTS.MySilu
Writing library                          : x264 core 129 r2230 1cffe9f
Encoding settings                        : cabac=1 / ref=4 / deblock=1:-2:-2 / analyse=0x3:0x113 / me=umh / subme=10 / psy=1 / psy_rd=1.20:0.20 / mixed_ref=1 / me_range=32 / chroma_me=1 / trellis=2 / 8x8dct=1 / cqm=0 / deadzone=21,11 / fast_pskip=0 / chroma_qp_offset=-3 / threads=6 / lookahead_threads=1 / sliced_threads=0 / nr=0 / decimate=0 / interlaced=0 / bluray_compat=0 / constrained_intra=0 / bframes=5 / b_pyramid=2 / b_adapt=2 / b_bias=0 / direct=3 / weightb=1 / open_gop=0 / weightp=2 / keyint=240 / keyint_min=1 / scenecut=40 / intra_refresh=0 / rc_lookahead=60 / rc=2pass / mbtree=0 / bitrate=11866 / ratetol=1.0 / qcomp=0.60 / qpmin=10 / qpmax=51 / qpstep=4 / cplxblur=20.0 / qblur=0.5 / vbv_maxrate=38000 / vbv_bufsize=38000 / nal_hrd=none / ip_ratio=1.40 / pb_ratio=1.30 / aq=1:1.00
Language                                 : English
Default                                  : Yes
Forced                                   : No
Audio #1
ID                                       : 2
Format                                   : DTS
Format/Info                              : Digital Theater Systems
Mode                                     : 16
Format settings, Endianness              : Big
Codec ID                                 : A_DTS
Duration                                 : 1h 33mn
Bit rate mode                            : Constant
Bit rate                                 : 1 509 Kbps
Channel(s)                               : 6 channels
Channel positions                        : Front: L C R, Side: L R, LFE
Sampling rate                            : 48.0 KHz
Bit depth                                : 16 bits
Compression mode                         : Lossy
Stream size                              : 1 010 MiB (11%)
Language                                 : English
Default                                  : Yes
Forced                                   : No
Audio #2
ID                                       : 3
Format                                   : AC-3
Format/Info                              : Audio Coding 3
Mode extension                           : CM (complete main)
Format settings, Endianness              : Big
Codec ID                                 : A_AC3
Duration                                 : 1h 33mn
Bit rate mode                            : Constant
Bit rate                                 : 448 Kbps
Channel(s)                               : 6 channels
Channel positions                        : Front: L C R, Side: L R, LFE
Sampling rate                            : 48.0 KHz
Bit depth                                : 16 bits
Compression mode                         : Lossy
Stream size                              : 300 MiB (3%)
Default                                  : No
Forced                                   : No

Скриншоты

Other forum [Profile] [PM]
Display posts from previous:    
Reply to topic

The time now is: Today 10:59

All times are GMT + 3 Hours



You cannot post new topics in this forum
You cannot reply to topics in this forum
You cannot edit your posts in this forum
You cannot delete your posts in this forum
You cannot vote in polls in this forum
You cannot attach files in this forum
You cannot download files in this forum