Today is a free download without charge Download

Я приду сама / Серии: 1-7 из 12 (Татьяна Новохатько) [2012, драма, DVB]

Reply to topic
 
Author
Message

Omen ®

Longevity: 8 years 11 months

Posts: 181086

Торрент-статистика

Post 23-Jan-2013 01:16

[Quote]

Я приду сама
Год выпуска: 2012
Производство: Компания PRO-TV
Жанр: драма
Продолжительность: ~0:43:00 серия
Субтитры: отсутствуют
Режиссёр: Татьяна Новохатько
В ролях: Елена Яковлева, Евгения Лоза, Максим Щёголев, Алексей Анищенко, Кирилл Иванченко, Елизавета Курбанмагомедова, Алиция Омельчук, Ирина Токарчук, Александр Спирин
Описание: Счастливый день свадьбы для медсестры Саши обернулся трагедией. Пришла страшная весть - ее жених Игорь погиб, спасая людей. С гибелью Игоря мир вокруг Саши стал неузнаваем: бывшие друзья стали врагами, доброжелательные соседки обернулись злыми сплетницами, появились претенденты и на ее квартиру. Наивная, добрая Саша мужественно сопротивлялась обстоятельствам, находила оправдание предательству близких, не озлоблялась, оставалась человеком душевным и мягким. И тут неожиданно появилась мать Игоря, Галина. Поначалу она показалась доброй и отзывчивой женщиной, умеющей находить со всеми общий язык. Но постепенно в ее характере стали проявляться странности...
Релиз: -Сэмпл-Качество: DVB (Express MD1 at 80.0°E)
Формат: MPEG-PS
Видео кодек: MPEG2
Аудио кодек: MP2
Видео: MPEG 2, 720x576 (4:3), 25.000 fps, 5350 Kbps (0.516 bit/pixel)
Аудио: MP2, 48.0 KHz, 2 ch, 256 Kbps, CBR

MediaInfo

ОбщееПолное имя : L:\Раздачи\Я приду сама\Я приду сама.01.mpgФормат : MPEG-PSРазмер файла : 1,74 ГбайтПродолжительность : 43 м.Режим общего битрейта : ПеременныйОбщий поток : 5720 Кбит/секБиблиотека кодирования : (c) 1998-2012 Womble Multimedia, Inc. / MPEG Video Wizard DVD 5.0.1.100 (03/2011) / Sep 7 2012
ВидеоИдентификатор : 224 (0xE0)Формат : MPEG VideoВерсия формата : Version 2Профиль формата : [email protected]Параметр BVOP формата : ДаПараметр матрицы формата : ВыборочнаяПараметр GOP формата : M=3, N=15Продолжительность : 43 м.Вид битрейта : ПеременныйБитрейт : 5350 Кбит/секМаксимальный битрейт : 15,0 Мбит/секШирина : 720 пикселейВысота : 576 пикселейСоотношение сторон : 4:3Частота кадров : 25,000 кадров/секСтандарт вещания : PALЦветовое пространство : YUVСубдискретизация насыщенности : 4:2:0Битовая глубина : 8 битТип развёртки : ЧересстрочнаяПорядок развёртки : Верхнее поле первоеМетод сжатия : С потерямиБит/(Пиксели*Кадры) : 0.516Размер потока : 1,63 Гбайт (94%)Выравнивание : (c) 1998-2012 Womble Multimedia, Inc. / MPEG Video Wizard DVD 5.0.1.100 (03/2011) / Sep 7 2012Заголовок : (c) 1998-2012 Womble Multimedia, Inc. / MPEG Video Wizard DVD 5.0.1.100 (03/2011) / Sep 7 2012Библиотека кодирования : (c) 1998-2012 Womble Multimedia, Inc. / MPEG Video Wizard DVD 5.0.1.100 (03/2011) / Sep 7 2012
АудиоИдентификатор : 192 (0xC0)Формат : MPEG AudioВерсия формата : Version 1Профиль формата : Layer 2Продолжительность : 43 м.Вид битрейта : ПостоянныйБитрейт : 256 Кбит/секКаналы : 2 каналаЧастота : 48,0 КГцМетод сжатия : С потерямиЗадержка видео : -80 мс.Размер потока : 79,9 Мбайт (4%)
Меню

Скриншоты


Раздача ведется путем добавления новых серий

Внимание! Раздача ведётся путём добавления новых серий; при каждом добавлении создаётся новый торрент. Чтобы начать докачку новой серии, пользователям необходимо сделать следующее:
(1) остановить скачивание,
(2) удалить старый торрент у себя из клиента (старые серии удалять не надо),
(3) скачать новый торрент и запустить его у себя в клиенте вместо старого, при этом указать клиенту путь в старую папку куда и должно происходить скачивание новых серий.
Ваш клиент при этом должен произвести хеширование (проверку) старой папки (если не производит сам - помогите ему сделать это), и будет докачивать только те серии которых у вас ещё нет. Старые серии при этом не удаляются, а продолжают раздаваться!
Eсли вы уже удалили старые серии, то предотвратить повторную закачку старых серий можно, отжав галочку в соответствующих местах при запуске нового торрента.
Other forum [Profile] [PM]
Display posts from previous:    
Reply to topic

The time now is: Today 13:57

All times are GMT + 3 Hours



You cannot post new topics in this forum
You cannot reply to topics in this forum
You cannot edit your posts in this forum
You cannot delete your posts in this forum
You cannot vote in polls in this forum
You cannot attach files in this forum
You cannot download files in this forum