Today is a free download without charge Download

Отражение / Серии: 1-12 из 12 (Александр Щурихин, Сергей Быстрицкий, Сергей Данелян) [2011, детектив, мелодрама, SATRip - AVC]

Reply to topic
 
Author
Message

Omen ®

Longevity: 8 years 11 months

Posts: 181086

Торрент-статистика

Post 23-Jan-2013 01:16

[Quote]

Отражение- Год выпуска: 2011
Производство: "ОДА-Фильм"
Жанр: детектив, мелодрама
Продолжительность: ~ 00:50:00
Субтитры: нет-Режиссёр: Александр Щурихин, Сергей Быстрицкий, Сергей Данелян-В ролях: Ольга Погодина, Поля Полякова, Андрей Биланов, Елена Котельникова, Прохор Зикора, Юрий Назаров, Евгений Коряковский, Юрий Чернов, Надежда Бахтина, Евгений Воловенко, Оксана Дорохина, и другие ...-Описание: Коротко о сериале "Отражение" - Бывший майор милиции Елизавета Круглова отбывает наказание в женской тюрьме за организацию банды из сотрудников органов внутренних дел. Ее дочь оказалась в детском доме. За несколько месяцев до условно-доскрочного освобождения у нее обнаруживается рак мозга. В это же время на зону попадает бывший следователь по особо важным делам Степанова Дарья за превышение служебных полномочий. У Лизы появляется план поменяться лицами и жизнями, чтобы у дочери появилась мать. Даша оказывается перед выбором.-Доп. Информация: Любая реклама ОТСУТСТВУЕТ!!!-Сэмпл-Качество: SATRip - AVC
Формат: MKV
Видео кодек: H.264
Аудио кодек: AC3
Видео: x264, 716 х 572**1018 х 572 (16:9), 25,000 кадр/сек, ~ 1521 Кбит/сек, ~ 0.149 bit/pixel
Аудио: AC3, 48.0 KHz, 2 канала(ов), 192 kbs

MI

Полное имя : Отражение.01 серия.2011.SATRip-AVC.Metla111.mkv
Формат : Matroska
Версия формата : Version 2
Размер файла : 601 Мбайт
Продолжительность : 48 м.
Общий поток : 1715 Кбит/сек
Дата кодирования : UTC 2012-12-11 08:29:28
Программа кодирования : mkvmerge v5.8.0 ('No Sleep / Pillow') built on Sep 2 2012 15:37:04
Библиотека кодирования : libebml v1.2.3 + libmatroska v1.3.0
Видео
Идентификатор : 1
Формат : AVC
Формат/Информация : Advanced Video Codec
Профиль формата : [email protected]
Параметр CABAC формата : Да
Параметр ReFrames формата : 12 кадров
Идентификатор кодека : V_MPEG4/ISO/AVC
Продолжительность : 48 м.
Битрейт : 1521 Кбит/сек
Ширина : 716 пикселей
Высота : 572 пикселя
Соотношение сторон : 16:9
Режим частоты кадров : Постоянный
Частота кадров : 25,000 кадров/сек
Цветовое пространство : YUV
Субдискретизация насыщенности : 4:2:0
Битовая глубина : 8 бит
Тип развёртки : Прогрессивная
Бит/(Пиксели*Кадры) : 0.149
Размер потока : 521 Мбайт (87%)
Библиотека кодирования : x264 core 125 r2208 d9d2288
Настройки программы : cabac=1 / ref=12 / deblock=1:-3:-3 / analyse=0x3:0x113 / me=umh / subme=9 / psy=1 / psy_rd=1.00:0.15 / mixed_ref=1 / me_range=32 / chroma_me=1 / trellis=2 / 8x8dct=1 / cqm=0 / deadzone=21,11 / fast_pskip=1 / chroma_qp_offset=-3 / threads=6 / lookahead_threads=1 / sliced_threads=0 / nr=0 / decimate=0 / interlaced=0 / bluray_compat=0 / constrained_intra=0 / bframes=8 / b_pyramid=2 / b_adapt=2 / b_bias=0 / direct=3 / weightb=1 / open_gop=0 / weightp=2 / keyint=250 / keyint_min=25 / scenecut=40 / intra_refresh=0 / rc=2pass / mbtree=0 / bitrate=1521 / ratetol=1.0 / qcomp=0.65 / qpmin=0 / qpmax=69 / qpstep=4 / cplxblur=20.0 / qblur=0.5 / ip_ratio=1.40 / pb_ratio=1.30 / aq=2:1.00
Default : Да
Forced : Нет
Основные цвета : BT.601 PAL
Характеристики трансфера : BT.470 System B, BT.470 System G
Коэффициенты матрицы : BT.601
Аудио
Идентификатор : 2
Формат : AC-3
Формат/Информация : Audio Coding 3
Расширение режима : CM (complete main)
Параметр Endianness формата : Big
Идентификатор кодека : A_AC3
Продолжительность : 48 м.
Вид битрейта : Постоянный
Битрейт : 192 Кбит/сек
Каналы : 2 канала
Расположение каналов : Front: L R
Частота : 48,0 КГц
Битовая глубина : 16 бит
Метод сжатия : С потерями
Размер потока : 67,2 Мбайт (11%)
Default : Да
Forced : Нет

Log - x264

raw [info]: 716x572p 64:45 @ 25/1 fps (cfr)
x264 [info]: using SAR=64/45
x264 [info]: using cpu capabilities: MMX2 SSE2Fast SSSE3 FastShuffle SSE4.2
x264 [info]: profile High, level 3.1
x264 [info]: frame I:664 Avg QP:17.79 size: 54751
x264 [info]: frame P:16781 Avg QP:20.73 size: 17304
x264 [info]: frame B:56000 Avg QP:22.67 size: 4140
x264 [info]: consecutive B-frames: 2.6% 2.8% 9.9% 22.0% 21.5% 35.6% 3.5% 1.0% 1.2%
x264 [info]: mb I I16..4: 7.6% 69.2% 23.2%
x264 [info]: mb P I16..4: 0.7% 7.3% 1.4% P16..4: 45.1% 27.4% 13.2% 0.0% 0.0% skip: 4.9%
x264 [info]: mb B I16..4: 0.0% 0.5% 0.1% B16..8: 42.1% 7.7% 1.7% direct: 4.1% skip:43.7% L0:35.2% L1:48.7% BI:16.1%
x264 [info]: 8x8 transform intra:75.0% inter:59.9%
x264 [info]: direct mvs spatial:98.1% temporal:1.9%
x264 [info]: coded y,uvDC,uvAC intra: 94.1% 78.4% 50.5% inter: 21.3% 23.4% 5.6%
x264 [info]: i16 v,h,dc,p: 27% 14% 12% 47%
x264 [info]: i8 v,h,dc,ddl,ddr,vr,hd,vl,hu: 20% 7% 4% 8% 12% 16% 10% 14% 9%
x264 [info]: i4 v,h,dc,ddl,ddr,vr,hd,vl,hu: 22% 6% 3% 8% 12% 17% 9% 13% 9%
x264 [info]: i8c dc,h,v,p: 29% 21% 30% 21%
x264 [info]: Weighted P-Frames: Y:5.1% UV:3.0%
x264 [info]: ref P L0: 50.5% 14.6% 16.9% 3.9% 4.0% 2.3% 2.4% 1.1% 1.2% 0.9% 1.0% 0.9% 0.2% 0.0%
x264 [info]: ref B L0: 85.6% 8.0% 2.4% 1.2% 0.8% 0.7% 0.5% 0.3% 0.3% 0.2% 0.1%
x264 [info]: ref B L1: 95.6% 4.4%
x264 [info]: kb/s:1521.14

Скриншоты

-
Other forum [Profile] [PM]
Display posts from previous:    
Reply to topic

The time now is: Today 08:43

All times are GMT + 3 Hours



You cannot post new topics in this forum
You cannot reply to topics in this forum
You cannot edit your posts in this forum
You cannot delete your posts in this forum
You cannot vote in polls in this forum
You cannot attach files in this forum
You cannot download files in this forum