Today is a free download without charge Download

Одиссея сыщика Гурова / Сезон: 3 Серии: 1-2 из 24 (Федор Петрухин) [2012, детектив, криминал, SATRip-AVC]

Reply to topic
 
Author
Message

Omen ®

Longevity: 8 years 11 months

Posts: 181086

Торрент-статистика

Post 23-Jan-2013 01:16

[Quote]

Одиссея сыщика Гурова
Год выпуска: 2012
Производство: Мело-фильм
Жанр: детектив, криминал
Продолжительность: ~00:45:00
Режиссёр: Федор Петрухин
В ролях: Сергей Маховиков, Борис Покровский, Алиса Признякова, Евгения Чиркова, Владимир Стержаков, Александр Нехороших, Андрей Зайцев, Роман Фролов, Екатерина Архарова, Ольга Родина
Описание: "Одиссея сыщика Гурова" — российский детективный сериал, снятый по мотивам произведений писателя Николая Леонова, прямое продолжение сериала "Новая жизнь сыщика Гурова".
Сыщик Гуров не зря имеет репутацию лучшего в МУР'е – он и в самом деле способен распутать такие дела, которые не под силу всем остальным. В сериале "Одиссея сыщика Гурова" главному герою предстоит бросить вызов "оборотням в погонах", раскрыть тайны загадочных убийства, разыскать похитителей известного олигарха и, конечно же, не раз рискнуть своей жизнью...
Сэмпл
Качество: SATRip-AVC
Формат: MKV
Видео кодек: H.264
Аудио кодек: AC3
Видео: AVC (H.264), [email protected] (16:9), 25.000 fps, 1632 kbps avg, 0.210 bit/pixel
Аудио: AC3, 48 kHz, 16 bits, 192 kbps, 2.0 ch

MI

Общее
Уникальный идентификатор : 213745593072253545352262102297215431543 (0xA0CDE7609B90E04F967651ED4976F377)
Полное имя : G:\Video\Одиссея.сыщика.Гурова.2012.SATRip-AVC.by.kvvk_2009\Одиссея.сыщика.Гурова.01.серия.2012.SATRip-AVC.by.kvvk_2009.mkv
Формат : Matroska
Версия формата : Version 2
Размер файла : 597 Мбайт
Продолжительность : 45 м.
Общий поток : 1826 Кбит/сек
Дата кодирования : UTC 2013-01-22 12:10:50
Программа кодирования : mkvmerge v3.4.0 ('Rapunzel') built on May 15 2010 09:38:20
Библиотека кодирования : libebml v0.8.0 + libmatroska v0.9.0
Видео
Идентификатор : 1
Формат : AVC
Формат/Информация : Advanced Video Codec
Профиль формата : [email protected]
Параметр CABAC формата : Да
Параметр ReFrames формата : 9 кадров
Идентификатор кодека : V_MPEG4/ISO/AVC
Продолжительность : 45 м.
Битрейт : 1632 Кбит/сек
Ширина : 720 пикселей
Высота : 432 пикселя
Соотношение сторон : 16:9
Частота кадров : 25,000 кадров/сек
Цветовое пространство : YUV
Субдискретизация насыщенности : 4:2:0
Битовая глубина : 8 бит
Тип развёртки : Прогрессивная
Бит/(Пиксели*Кадры) : 0.210
Размер потока : 522 Мбайт (87%)
Библиотека кодирования : x264 core 129 r2230 1cffe9f
Настройки программы : cabac=1 / ref=9 / deblock=1:-2:-2 / analyse=0x3:0x113 / me=umh / subme=9 / psy=1 / psy_rd=1.00:0.15 / mixed_ref=1 / me_range=32 / chroma_me=1 / trellis=2 / 8x8dct=1 / cqm=0 / deadzone=21,11 / fast_pskip=1 / chroma_qp_offset=-3 / threads=3 / lookahead_threads=1 / sliced_threads=0 / nr=0 / decimate=0 / interlaced=0 / bluray_compat=0 / constrained_intra=0 / bframes=9 / b_pyramid=2 / b_adapt=2 / b_bias=0 / direct=3 / weightb=1 / open_gop=0 / weightp=2 / keyint=250 / keyint_min=25 / scenecut=40 / intra_refresh=0 / rc=2pass / mbtree=0 / bitrate=1632 / ratetol=1.0 / qcomp=0.60 / qpmin=0 / qpmax=51 / qpstep=4 / cplxblur=20.0 / qblur=0.5 / ip_ratio=1.40 / pb_ratio=1.30 / aq=1:0.90
Язык : English
Default : Нет
Forced : Нет
Аудио
Идентификатор : 2
Формат : AC-3
Формат/Информация : Audio Coding 3
Расширение режима : CM (complete main)
Идентификатор кодека : A_AC3
Продолжительность : 45 м.
Вид битрейта : Постоянный
Битрейт : 192 Кбит/сек
Каналы : 2 канала
Расположение каналов : Front: L R
Частота : 48,0 КГц
Битовая глубина : 16 бит
Метод сжатия : С потерями
Размер потока : 62,8 Мбайт (11%)
Заголовок : AC3 2ch @ 192 kbps
Язык : Russian
Default : Да
Forced : Нет

Скриншоты


Внимание. Раздача ведется путем добавления новых серий

Внимание! Раздача ведётся путём добавления новых серий; при каждом добавлении создаётся новый торрент. Чтобы начать докачку новой серии, пользователям необходимо сделать следующее:
(1) остановить скачивание,
(2) удалить старый торрент у себя из клиента (старые серии удалять не надо),
(3) скачать новый торрент и запустить его у себя в клиенте вместо старого, при этом указать клиенту путь в старую папку, куда и должно происходить скачивание новых серий.
Ваш клиент при этом должен произвести хеширование (проверку) старой папки (если не производит сам - помогите ему сделать это), и будет докачивать только те серии, которых у вас ещё нет. Старые серии при этом не удаляются, а продолжают раздаваться!
Eсли вы уже удалили старые серии, то предотвратить повторную закачку старых серий можно, отжав галочку в соответсвующих местах при запуске нового торрента. По возможности, желательно не удалять старые серии как можно дольше, чтобы релизёр не занимался бы только раздачей старых серий, а мог бы сконцентрироваться на новых
Other forum [Profile] [PM]
Display posts from previous:    
Reply to topic

The time now is: Today 14:11

All times are GMT + 3 Hours



You cannot post new topics in this forum
You cannot reply to topics in this forum
You cannot edit your posts in this forum
You cannot delete your posts in this forum
You cannot vote in polls in this forum
You cannot attach files in this forum
You cannot download files in this forum