Today is a free download without charge Download

Защита Красина / Сезон 1 /Серии: 1-12 из 12 ( Алексей Шикин) [2006, Криминал, боевик, детектив, SATRip-AVC]

Reply to topic
 
Author
Message

Omen ®

Longevity: 8 years 11 months

Posts: 181086

Торрент-статистика

Post 23-Jan-2013 01:16

[Quote]

Защита Красина
Год выпуска: 2006
Производство: Студия "Панорама"
Жанр: Криминал, боевик, детектив
Продолжительность: ~00:45:00
Режиссёр: Алексей Шикин
В ролях: Юрий Архангельский, Сергей Цепов, Александр Большаков, Михаил Лучко, Игорь Николаев, Дмитрий Макеев, Евгений Шершень, Оксана Скачкова, Сергей Галич, Людмила Живых, Наталья Ткаченко, Борис Клюев, Евгений Иванов, Софья Горелик
Описание: Руководителю отдела по расследованию убийств подполковнику Олегу Красину представляют его нового заместителя, Виктора Сосновского, молодого человека с блестящим послужным списком и отличной биографией. Довольно скоро становится понятным, что с этим назначением не все так просто. Майор Сосновский, сын милицейского генерала, сам метит на должность своего начальника, а Красину тем временем поступает неожиданное предложение, которое тот, поначалу, расценивает как провокацию...

Качество: SATRip-MKV
Формат: MKV
Видео кодек: H.264
Аудио кодек: AAC
Видео: MPEG4 Video (H264) 720x400, ~ 1208 kbps, 25.00fps
Аудио: AAC, 2 канала, 48,0 КГц, ~192 kbps, VBR
Сторонней рекламы нет!

MediaInfo

ОбщееУникальный идентификатор : 221352627614686444851129795293588854470 (0xA686F723173A9007A25AC4A9ECCD96C6)Полное имя : H:\ФИЛЬМЫ\Защита Красина AVC\Защита Красина 12_серия_SATRip_by_Серый1779.mkvФормат : MatroskaВерсия формата : Version 2Размер файла : 444 МбайтПродолжительность : 44 м.Общий поток : 1402 Кбит/секДата кодирования : UTC 2013-01-21 09:13:03Программа кодирования : mkvmerge v4.9.1 ('Ich will') built on Sep 21 2011 17:48:11Библиотека кодирования : libebml v1.2.1 + libmatroska v1.2.0
ВидеоИдентификатор : 1Формат : AVCФормат/Информация : Advanced Video CodecПрофиль формата : [email protected]Параметр CABAC формата : ДаПараметр ReFrames формата : 12 кадровИдентификатор кодека : V_MPEG4/ISO/AVCПродолжительность : 44 м.Битрейт : 1183 Кбит/секШирина : 720 пикселейВысота : 400 пикселейСоотношение сторон : 16:9Режим частоты кадров : ПостоянныйЧастота кадров : 25,000 кадров/секЦветовое пространство : YUVСубдискретизация насыщенности : 4:2:0Битовая глубина : 8 битТип развёртки : ПрогрессивнаяБит/(Пиксели*Кадры) : 0.164Размер потока : 374 Мбайт (84%)Библиотека кодирования : x264 core 118 r2085 8a62835Настройки программы : cabac=1 / ref=12 / deblock=1:-2:-2 / analyse=0x3:0x133 / me=umh / subme=9 / psy=1 / psy_rd=1.00:0.15 / mixed_ref=1 / me_range=32 / chroma_me=1 / trellis=2 / 8x8dct=1 / cqm=0 / deadzone=21,11 / fast_pskip=0 / chroma_qp_offset=-3 / threads=3 / sliced_threads=0 / nr=0 / decimate=1 / interlaced=0 / bluray_compat=0 / constrained_intra=0 / bframes=10 / b_pyramid=2 / b_adapt=2 / b_bias=0 / direct=1 / weightb=1 / open_gop=0 / weightp=2 / keyint=250 / keyint_min=25 / scenecut=40 / intra_refresh=0 / rc_lookahead=50 / rc=crf / mbtree=1 / crf=18.0 / qcomp=0.60 / qpmin=0 / qpmax=69 / qpstep=4 / ip_ratio=1.40 / aq=2:0.80Default : ДаForced : НетОсновные цвета : BT.601 PALХарактеристики трансфера : BT.470 System B, BT.470 System GКоэффициенты матрицы : BT.601
АудиоИдентификатор : 2Формат : MPEG AudioВерсия формата : Version 1Профиль формата : Layer 2Идентификатор кодека : A_MPEG/L2Идентификатор кодека/Подсказка : MP2Продолжительность : 44 м.Вид битрейта : ПостоянныйБитрейт : 192 Кбит/секКаналы : 2 каналаЧастота : 48,0 КГцМетод сжатия : С потерямиРазмер потока : 60,7 Мбайт (14%)Default : ДаForced : Нет

h264 log

x264 [info]: frame I:475 Avg QP:14.62 size: 56199x264 [info]: frame P:18929 Avg QP:17.88 size: 14094x264 [info]: frame B:46944 Avg QP:22.85 size: 2290x264 [info]: consecutive B-frames: 5.8% 6.3% 17.9% 22.8% 24.5% 20.9% 1.3% 0.2% 0.2% 0.1% 0.0%x264 [info]: mb I I16..4: 10.0% 63.3% 26.7%x264 [info]: mb P I16..4: 0.8% 5.6% 1.2% P16..4: 48.9% 19.9% 10.8% 2.4% 1.2% skip: 9.1%x264 [info]: mb B I16..4: 0.0% 0.4% 0.1% B16..8: 39.4% 6.7% 1.7% direct: 2.7% skip:49.0% L0:32.3% L1:48.3% BI:19.4%x264 [info]: 8x8 transform intra:71.1% inter:48.0%x264 [info]: coded y,uvDC,uvAC intra: 88.3% 66.7% 36.0% inter: 19.3% 12.6% 1.2%x264 [info]: i16 v,h,dc,p: 29% 20% 9% 41%x264 [info]: i8 v,h,dc,ddl,ddr,vr,hd,vl,hu: 13% 16% 5% 8% 12% 12% 13% 11% 12%x264 [info]: i4 v,h,dc,ddl,ddr,vr,hd,vl,hu: 16% 12% 4% 8% 13% 13% 12% 11% 11%x264 [info]: i8c dc,h,v,p: 32% 32% 21% 15%x264 [info]: Weighted P-Frames: Y:1.0% UV:0.4%x264 [info]: ref P L0: 59.6% 12.3% 14.4% 2.9% 2.8% 1.8% 1.9% 0.9% 0.9% 0.7% 0.8% 0.8% 0.3% 0.0%x264 [info]: ref B L0: 92.3% 4.8% 1.2% 0.5% 0.3% 0.3% 0.2% 0.1% 0.1% 0.1% 0.1%x264 [info]: ref B L1: 96.6% 3.4%x264 [info]: kb/s:1208.66
x264 [total]: encoded 66348 frames, 2.65 fps, 1208.66 kb/s
Отдельное спасибо kostik184 за предоставление исходника.

Внимание ! Раздача ведётся путём добавления новых серий

Внимание! Раздача ведётся путём добавления новых серий; при каждом добавлении создётся новый торрент. Чтобы начать докачку новой серии, пользователям необходимо сделать следующее:
(1) остановить скачивание,
(2) удалить старый торрент у себя из клиента (старые серии удалять не надо),
(3) скачать новый торрент и запустить его у себя в клиенте вместо старого, при этом указать клиенту путь в старую папку куда и должно происходить скачивание новых серий.
Ваш клиент при этом должен произвести хеширование (проверку) старой папки (если не производит сам - помогите ему сделать это), и будет докачивать только те серии которых у вас ещё нет. Старые серии при этом не удаляются, а продолжают раздаваться!
Eсли вы уже удалили старые серии, то предотвратить повторную закачку старых серий можно, отжав галочку в соответсвующих местах при запуске нового торрента. По возможности, желательно не удалять старые серии как можно дольше чтобы релизёр не столько продолжал раздавать старые серии, а смог сконцентрироваться на новых.
ВНИМАНИЕ! ТОРРЕНТ ПЕРЕЗАЛИТ! ДОБАВЛЕНА 12-ая СЕРИЯ!

Скриншоты

Other forum [Profile] [PM]
Similar theme
Forum Topic Author Torrent Replies Last Post
./templates/default/images/folder_dl.gif Компьютерная литература Столлингс В. - Криптография и защита сетей. Принципы и практика [2001, PDF, RUS] Omen
1 | 0

0 | 679

2

2015-05-04 03:09
Omen Latest
Display posts from previous:    
Reply to topic

The time now is: Today 13:57

All times are GMT + 3 Hours



You cannot post new topics in this forum
You cannot reply to topics in this forum
You cannot edit your posts in this forum
You cannot delete your posts in this forum
You cannot vote in polls in this forum
You cannot attach files in this forum
You cannot download files in this forum