Today is a free download without charge Download

Виктория / Серии: 1-2 из 8 (Андрей Джунковский) [2012, остросюжетная мелодрама, HDTVRip - AVC]

Reply to topic
 
Author
Message

Omen ®

Longevity: 9 years 1 month

Posts: 181086

Торрент-статистика

Post 23-Jan-2013 01:16

[Quote]

Виктория- Год выпуска: 2012
Производство: Всемирные Русские Студии
Жанр: остросюжетная мелодрама
Продолжительность: ~ 00:49:00
Субтитры: нет-Режиссёр: Андрей Джунковский-В ролях: Татьяна Арнтгольц, Александр Ратников, Сергей Перегудов, Анжелика Пташук, Алексей Лонгин, Александр Денисенко, Эльдар Джанибеков-Описание: Счастливая мать и жена – молодая женщина Виктория. Её муж служит в далеком военном гарнизоне. Частый гость в их семье – друг детства Юрий, который давно и безнадежно влюблен в Викторию: он отказался от карьеры в столице, чтобы всегда быть рядом с любимой.
Жизнь в стране неспокойна. Мужа Виктории сокращают из армии, и он уезжает служить по контракту. О его новой работе Виктория ничего не знает. Известно только то, что он служит на границе с соседним государством Шахристан. Однажды Виктория узнает, что ее муж без вести пропал в горах. А через год пропадает еще и ее сын, которого, по сведениям, увезли в Шахристан.
Вместе с Юрием она отправляется на поиски своей семьи в полную опасностей и приключений восточную страну. Она даже не догадывается, что к похищению сына имеет отношение «без вести-Доп. Информация: Спасибо mydimka за предоставленный исходник!-Любая реклама ОТСУТСТВУЕТ!!!-Сэмпл-Качество: HDTVRip - AVC [Рип с HDTV 1080i]
Формат: MKV
Видео кодек: H.264
Аудио кодек: AC3
Видео: x264, 1024 х 576 (16:9), 25,000 кадр/сек, ~ 1591 Кбит/сек, ~ 0.108 bit/pixel
Аудио: AC3, 48.0 KHz, 2 канала(ов), 256 kbs

MI

Полное имя : C:\Users\Роки\Videos\Виктория.2012.HDTVRip-AVC.Metla111\Виктория.01 серия.2012.HDTVRip-AVC.Metla111.mkv
Формат : Matroska
Версия формата : Version 2
Размер файла : 650 Мбайт
Продолжительность : 49 м.
Общий поток : 1849 Кбит/сек
Дата кодирования : UTC 2013-01-22 17:20:24
Программа кодирования : mkvmerge v5.8.0 ('No Sleep / Pillow') built on Sep 2 2012 15:37:04
Библиотека кодирования : libebml v1.2.3 + libmatroska v1.3.0
Видео
Идентификатор : 1
Формат : AVC
Формат/Информация : Advanced Video Codec
Профиль формата : [email protected]
Параметр CABAC формата : Да
Параметр ReFrames формата : 12 кадров
Идентификатор кодека : V_MPEG4/ISO/AVC
Продолжительность : 49 м.
Битрейт : 1591 Кбит/сек
Ширина : 1024 пикселя
Высота : 576 пикселей
Соотношение сторон : 16:9
Режим частоты кадров : Постоянный
Частота кадров : 25,000 кадров/сек
Цветовое пространство : YUV
Субдискретизация насыщенности : 4:2:0
Битовая глубина : 8 бит
Тип развёртки : Прогрессивная
Бит/(Пиксели*Кадры) : 0.108
Размер потока : 547 Мбайт (84%)
Библиотека кодирования : x264 core 125 r2208 d9d2288
Настройки программы : cabac=1 / ref=12 / deblock=1:-3:-3 / analyse=0x3:0x113 / me=umh / subme=9 / psy=1 / psy_rd=1.00:0.20 / mixed_ref=1 / me_range=32 / chroma_me=1 / trellis=2 / 8x8dct=1 / cqm=0 / deadzone=21,11 / fast_pskip=1 / chroma_qp_offset=-3 / threads=6 / lookahead_threads=1 / sliced_threads=0 / nr=0 / decimate=0 / interlaced=0 / bluray_compat=0 / constrained_intra=0 / bframes=10 / b_pyramid=2 / b_adapt=2 / b_bias=0 / direct=3 / weightb=1 / open_gop=0 / weightp=2 / keyint=250 / keyint_min=25 / scenecut=40 / intra_refresh=0 / rc=2pass / mbtree=0 / bitrate=1591 / ratetol=1.0 / qcomp=0.70 / qpmin=0 / qpmax=69 / qpstep=4 / cplxblur=20.0 / qblur=0.5 / ip_ratio=1.40 / pb_ratio=1.30 / aq=1:1.00
Default : Да
Forced : Нет
Основные цвета : BT.709
Характеристики трансфера : BT.709
Коэффициенты матрицы : BT.709
Аудио
Идентификатор : 2
Формат : AC-3
Формат/Информация : Audio Coding 3
Расширение режима : CM (complete main)
Параметр Endianness формата : Big
Идентификатор кодека : A_AC3
Продолжительность : 49 м.
Вид битрейта : Постоянный
Битрейт : 256 Кбит/сек
Каналы : 2 канала
Расположение каналов : Front: L R
Частота : 48,0 КГц
Битовая глубина : 16 бит
Метод сжатия : С потерями
Размер потока : 90,0 Мбайт (14%)
Default : Да
Forced : Нет

Log - x264

raw [info]: 1024x576p 1:1 @ 25/1 fps (cfr)
x264 [info]: using SAR=1/1
x264 [info]: using cpu capabilities: MMX2 SSE2Fast SSSE3 FastShuffle SSE4.2
x264 [info]: profile High, level 4.0
x264 [info]: frame I:511 Avg QP:20.98 size: 69118
x264 [info]: frame P:17293 Avg QP:23.65 size: 17902
x264 [info]: frame B:55950 Avg QP:25.41 size: 4321
x264 [info]: consecutive B-frames: 1.4% 2.3% 6.0% 50.5% 14.0% 22.2% 2.3% 1.0% 0.2% 0.1% 0.0%
x264 [info]: mb I I16..4: 10.3% 72.9% 16.8%
x264 [info]: mb P I16..4: 1.6% 7.6% 0.9% P16..4: 49.1% 19.0% 10.9% 0.0% 0.0% skip:10.8%
x264 [info]: mb B I16..4: 0.1% 0.6% 0.1% B16..8: 39.4% 4.9% 1.2% direct: 3.7% skip:50.0% L0:39.4% L1:52.8% BI: 7.8%
x264 [info]: 8x8 transform intra:74.1% inter:66.7%
x264 [info]: direct mvs spatial:96.1% temporal:3.9%
x264 [info]: coded y,uvDC,uvAC intra: 79.2% 81.5% 47.3% inter: 16.6% 22.5% 6.4%
x264 [info]: i16 v,h,dc,p: 34% 17% 9% 40%
x264 [info]: i8 v,h,dc,ddl,ddr,vr,hd,vl,hu: 12% 9% 5% 9% 13% 14% 13% 12% 12%
x264 [info]: i4 v,h,dc,ddl,ddr,vr,hd,vl,hu: 15% 8% 3% 8% 14% 15% 13% 12% 12%
x264 [info]: i8c dc,h,v,p: 35% 24% 22% 19%
x264 [info]: Weighted P-Frames: Y:6.3% UV:2.9%
x264 [info]: ref P L0: 46.5% 13.9% 18.2% 4.6% 4.8% 2.8% 3.0% 1.3% 1.5% 1.1% 1.3% 1.1% 0.1% 0.0%
x264 [info]: ref B L0: 84.7% 8.0% 2.7% 1.3% 0.9% 0.8% 0.6% 0.4% 0.3% 0.2% 0.1%
x264 [info]: ref B L1: 95.7% 4.3%
x264 [info]: kb/s:1590.80

Скриншоты

Внимание ! Раздача ведётся путём добавления новых серий

Внимание! Раздача ведётся путём добавления новых серий; при каждом добавлении создаётся новый торрент. Чтобы начать докачку новой серии, пользователям необходимо сделать следующее:
(1) остановить скачивание,
(2) удалить старый торрент у себя из клиента (старые серии удалять не надо),
(3) скачать новый торрент и запустить его у себя в клиенте вместо старого, при этом указать клиенту путь в старую папку куда и должно происходить скачивание новых серий.
Ваш клиент при этом должен произвести хеширование (проверку) старой папки (если не производит сам - помогите ему сделать это), и будет докачивать только те серии которых у вас ещё нет. Старые серии при этом не удаляются, а продолжают раздаваться!
Если вы уже удалили старые серии, то предотвратить повторную закачку старых серий можно, отжав галочку в соответствующих местах при запуске нового торрента. По возможности, желательно не удалять старые серии как можно дольше чтобы релизёр не столько продолжал раздавать старые серии, а смог сконцентрироваться на новых.
-
Other forum [Profile] [PM]
Similar theme
Forum Topic Author Torrent Replies Last Post
./templates/default/images/folder_dl.gif Фантастика, фэнтези, ужасы, мистика Пелевин Виктор - Generation П [Клюквин Александр, 2013 г., 128 kbps, MP3] Omen
1 | 0

0 | 1204

0

2013-11-06 08:00
Omen Latest
./templates/default/images/folder_dl.gif Современная проза, классика, поэзия Виктор Пелевин | Generation П [Александр Клюквин] (2013) [MP3] UndegraundMen
1 | 0

0 | 942

2

2013-11-07 18:36
UndegraundMen Latest
Display posts from previous:    
Reply to topic

The time now is: Today 05:51

All times are GMT + 3 Hours



You cannot post new topics in this forum
You cannot reply to topics in this forum
You cannot edit your posts in this forum
You cannot delete your posts in this forum
You cannot vote in polls in this forum
You cannot attach files in this forum
You cannot download files in this forum