Today is a free download without charge Download

A Film About The Doors: When You're Strange [2009, documentary, rock, Blu-ray]

Reply to topic
 
Author
Message

Omen ®

Longevity: 8 years 4 months

Posts: 181087

Торрент-статистика

Post 23-Jan-2013 01:16

[Quote]

A Film About The Doors: When You're Strange
Жанр: documentary, rock
Продолжительность: 01:25:24
Год выпуска: 2009
Описание:
Первая полнометражная документальная лента о творчестве легендарной американской группы The Doors. В фильм включены никогда ранее не показывавшиеся публике хроникальные материалы о The Doors, отснятые в промежутке между 1965 годом, когда был основан коллектив, и 1971-м, когда перестало биться сердце его лидера.
Tom DiCillo's documentary film When You're Strange offers a controversial but hugely entertaining look at the legacy of one of the greatest rock bands ever - The Doors. The film was made with the full cooperation of the surviving band members, and is narrated by actor Johnny Depp.
Practically the entire film consists of archival footage, some of which has not been seen before. Different photos, home movies, TV shows and TV news reports are carefully put together in an attempt to provide a real feel of the complex socio-political environment in America during the 60s and 70s in which the Doors thrived. Practically all major Doors hits can be heard in the film as well.
DiCillo begins his film with the news about Jim Morrison's death in Paris. What follows up is a mix of speculations, none of which are made by DiCillo – he only highlights the type of speculations the media in America produced at the time. There is no commentary from DiCillo, experts, or talking heads on the credibility of these speculations.
There is a lot more in the film about Morrison than there is about his bandmates - keyboardist Ray Manzarek, guitarist Robby Krieger and drummer John Densmore. Most of the footage from the first half of the film is primarily about Morrison's fascination with music and poetry, as well as his early drinking problem. The tension between Morison and his father, a Navy admiral who fought in the Vietnam War, is also well documented.
Footage from Morrison, Manzarek, Krieger and Densmore's first concerts as a band is quickly followed by observations about America's youth and the country's political leaders. Later on, footage from important political events, such as the assassination of Bobby Kennedy and the Kent State University massacre, regularly appears next to footage from some of the band's most controversial concerts. Again, there is no commentary from DiCillo, experts, or talking heads.
During the second half of the film, the focus of attention is entirely on Morrison's serious drinking problem. The effect alcohol has on Morrison, on and off the stage, is devastating. After the notorious Miami incident – during a concert at Dinner Key Auditorium on March 1, 1969, Morrison apparently flashed his genitals, which resulted in arrest warrant issued by Dade County Sherriff's office – Morrison also becomes addicted to cocaine. Though in the court Morrison is backed by his bandmates, in the studio they are all frustrated with him.
The Doors and Morrison's final days have been a subject of massive speculations for years. In When You're Strange they are not. With the terrific archival footage provided by the surviving members of The Doors, DiCillo effectively chronicles the events that led to the band's demise, and Morrison's premature death, but there is no attempt to explain, condemn, or justify them.
Доп. информация:
Выпущено: Eagle Rock Entertainment
Режиссер: Tom DiCillo
В ролях: John Densmore, Robby Krieger, Ray Manzarek, Jim Morrison, Johnny Depp
Бонус:
Conversations - exclusive interviews with Jim Morrison's father, Admiral George C. Morrison, and his sister. These are incredibly moving interviews that effectively reveal how terribly misunderstood Jim was even by his own family. (9 min, 1080p).
Trailer - the original theatrical trailer for the film. (2 min, 1080p).
Качество: Blu-ray
Контейнер: BDMV
Видео кодек: AVC
Аудио кодек: DTS, AC-3, PCM
Видео: MPEG-4 AVC 23384 kbps 1920x1080p / 23,976 fps / 16:9 / High Profile 4.1
Аудио: English DTS-HD MA 5.1 / 48 kHz / 4017 kbps / 24-bit (DTS Core: 5.1 / 48 kHz / 1509 kbps / 24-bit)
Аудио 2: English LPCM 2.0 / 48 kHz / 2304 kbps / 24-bit

BDInfo

Disc Title: When You're Strange.A Film About The DoorsDisc Size: 23 054 356 870 bytesProtection: AACSBD-Java: NoBDInfo: 0.5.8
Notes:
BDINFO HOME: Cinema Squid http://www.cinemasquid.com/blu-ray/tools/bdinfo
INCLUDES FORUMS REPORT FOR: AVS Forum Blu-ray Audio and Video Specifications Thread http://www.avsforum.com/avs-vb/showthread.php?t=1155731
********************PLAYLIST: 00000.MPLS********************
Код:
Total   Video
Title                                                           Codec   Length  Movie Size      Disc Size       Bitrate Bitrate Main Audio Track                          Secondary Audio Track
-----                                                           ------  ------- --------------  --------------  ------- ------- ------------------                        ---------------------
00000.MPLS                                                      AVC     1:25:24 20 088 035 328  23 054 356 870  31,36   23,38   LPCM 2.0 2304Kbps (48kHz/24-bit)          DTS-HD Master 5.1 4017Kbps (48kHz/24-bit)
Код:
DISC INFO:
Disc Title:     When You're Strange.A Film About The Doors
Disc Size:      23 054 356 870 bytes
Protection:     AACS
BD-Java:        No
BDInfo:         0.5.8
PLAYLIST REPORT:
Name:                   00000.MPLS
Length:                 1:25:24.160 (h:m:s.ms)
Size:                   20 088 035 328 bytes
Total Bitrate:          31,36 Mbps
VIDEO:
Codec                   Bitrate             Description
-----                   -------             -----------
MPEG-4 AVC Video        23384 kbps          1080p / 23,976 fps / 16:9 / High Profile 4.1
AUDIO:
Codec                           Language        Bitrate         Description
-----                           --------        -------         -----------
LPCM Audio                      English         2304 kbps       2.0 / 48 kHz / 2304 kbps / 24-bit
DTS-HD Master Audio             English         4017 kbps       5.1 / 48 kHz / 4017 kbps / 24-bit (DTS Core: 5.1 / 48 kHz / 1509 kbps / 24-bit)
FILES:
Name            Time In         Length          Size            Total Bitrate
----            -------         ------          ----            -------------
00000.M2TS      0:00:00.000     1:25:24.160     20 088 035 328  31 362
CHAPTERS:
Number          Time In         Length          Avg Video Rate  Max 1-Sec Rate  Max 1-Sec Time  Max 5-Sec Rate  Max 5-Sec Time  Max 10Sec Rate  Max 10Sec Time  Avg Frame Size  Max Frame Size  Max Frame Time
------          -------         ------          --------------  --------------  --------------  --------------  --------------  --------------  --------------  --------------  --------------  --------------
1               0:00:00.000     0:06:09.452     20 315 kbps     45 656 kbps     00:06:08.451    37 839 kbps     00:05:38.755    37 664 kbps     00:05:38.713    105 904 bytes   561 425 bytes   00:02:08.837
2               0:06:09.452     0:11:18.010     24 457 kbps     46 727 kbps     00:15:50.783    41 825 kbps     00:09:59.557    38 152 kbps     00:09:55.720    127 507 bytes   457 142 bytes   00:08:56.953
3               0:17:27.463     0:07:36.664     28 574 kbps     46 801 kbps     00:20:31.521    41 329 kbps     00:18:11.006    36 866 kbps     00:20:31.521    148 973 bytes   451 866 bytes   00:22:53.997
4               0:25:04.127     0:07:22.316     28 743 kbps     50 453 kbps     00:27:00.452    42 361 kbps     00:30:47.262    39 279 kbps     00:30:47.679    149 851 bytes   514 053 bytes   00:27:00.952
5               0:32:26.444     0:04:16.756     27 974 kbps     46 037 kbps     00:33:25.003    39 979 kbps     00:33:27.422    37 784 kbps     00:33:24.794    145 845 bytes   550 482 bytes   00:32:46.464
6               0:36:43.201     0:05:39.505     23 811 kbps     44 913 kbps     00:36:51.584    42 654 kbps     00:40:56.245    39 400 kbps     00:40:56.245    124 139 bytes   491 987 bytes   00:37:45.805
7               0:42:22.706     0:05:10.351     24 344 kbps     47 516 kbps     00:42:37.554    42 681 kbps     00:43:33.277    38 546 kbps     00:46:53.143    126 920 bytes   537 423 bytes   00:47:16.416
8               0:47:33.058     0:03:03.933     21 974 kbps     51 587 kbps     00:49:30.342    37 868 kbps     00:49:29.091    35 300 kbps     00:50:03.291    114 562 bytes   533 706 bytes   00:49:33.887
9               0:50:36.992     0:02:17.220     26 653 kbps     45 620 kbps     00:51:44.392    40 842 kbps     00:51:41.098    39 039 kbps     00:51:41.264    138 958 bytes   590 337 bytes   00:50:45.000
10              0:52:54.212     0:06:24.634     27 198 kbps     46 955 kbps     00:53:04.639    37 952 kbps     00:53:41.593    36 804 kbps     00:53:39.257    141 797 bytes   565 581 bytes   00:52:59.593
11              0:59:18.846     0:03:15.278     19 286 kbps     45 523 kbps     01:01:21.552    37 186 kbps     01:01:24.597    35 211 kbps     01:01:19.592    100 546 bytes   401 919 bytes   01:02:17.608
12              1:02:34.125     0:05:49.182     21 116 kbps     47 646 kbps     01:03:20.588    39 841 kbps     01:06:32.113    36 399 kbps     01:03:20.338    110 091 bytes   504 075 bytes   01:03:25.218
13              1:08:23.307     0:06:19.754     22 814 kbps     47 736 kbps     01:14:38.265    41 300 kbps     01:10:36.774    38 328 kbps     01:14:06.525    118 944 bytes   547 986 bytes   01:09:12.523
14              1:14:43.061     0:00:47.380     17 955 kbps     47 697 kbps     01:15:17.387    40 406 kbps     01:15:17.095    30 336 kbps     01:15:15.260    93 611 bytes    434 768 bytes   01:15:05.417
15              1:15:30.442     0:02:36.281     15 301 kbps     38 370 kbps     01:16:55.902    33 313 kbps     01:16:20.617    28 262 kbps     01:16:19.157    79 771 bytes    426 228 bytes   01:15:36.240
16              1:18:06.723     0:03:07.979     22 377 kbps     45 845 kbps     01:18:13.772    39 553 kbps     01:18:13.146    38 518 kbps     01:18:12.437    116 665 bytes   502 777 bytes   01:21:09.906
17              1:21:14.703     0:04:09.457     6 969 kbps      35 162 kbps     01:21:27.549    22 230 kbps     01:22:19.559    21 421 kbps     01:22:14.679    36 338 bytes    669 530 bytes   01:21:28.758
STREAM DIAGNOSTICS:
File            PID             Type            Codec           Language                Seconds                 Bitrate                 Bytes           Packets
----            ---             ----            -----           --------                --------------          --------------          -------------   -----
00000.M2TS      4113 (0x1011)   0x1B            AVC                                     5123,994                23 385                  14 977 764 986  81 473 197
00000.M2TS      4352 (0x1100)   0x80            LPCM            eng (English)           5123,994                2 310                   1 479 854 520   8 198 640
00000.M2TS      4353 (0x1101)   0x86            DTS-HD MA       eng (English)           5123,994                4 017                   2 573 008 224   14 781 641
QUICK SUMMARY:
Disc Title: When You're Strange.A Film About The DoorsDisc Size: 23 054 356 870 bytesProtection: AACSBD-Java: NoPlaylist: 00000.MPLSSize: 20 088 035 328 bytesLength: 1:25:24.160Total Bitrate: 31,36 MbpsVideo: MPEG-4 AVC Video / 23384 kbps / 1080p / 23,976 fps / 16:9 / High Profile 4.1Audio: English / LPCM Audio / 2.0 / 48 kHz / 2304 kbps / 24-bitAudio: English / DTS-HD Master Audio / 5.1 / 48 kHz / 4017 kbps / 24-bit (DTS Core: 5.1 / 48 kHz / 1509 kbps / 24-bit)
********************PLAYLIST: 00002.MPLS********************
Код:
Total   Video
Title                                                           Codec   Length  Movie Size      Disc Size       Bitrate Bitrate Main Audio Track                          Secondary Audio Track
-----                                                           ------  ------- --------------  --------------  ------- ------- ------------------                        ---------------------
00002.MPLS                                                      AVC     0:08:54 2 060 568 576   23 054 356 870  30,84   24,77   LPCM 2.0 2304Kbps (48kHz/24-bit)          LPCM 2.0 2304Kbps (48kHz/24-bit)
Код:
DISC INFO:
Disc Title:     When You're Strange.A Film About The Doors
Disc Size:      23 054 356 870 bytes
Protection:     AACS
BD-Java:        No
BDInfo:         0.5.8
PLAYLIST REPORT:
Name:                   00002.MPLS
Length:                 0:08:54.575 (h:m:s.ms)
Size:                   2 060 568 576 bytes
Total Bitrate:          30,84 Mbps
VIDEO:
Codec                   Bitrate             Description
-----                   -------             -----------
MPEG-4 AVC Video        24771 kbps          1080p / 23,976 fps / 16:9 / High Profile 4.1
AUDIO:
Codec                           Language        Bitrate         Description
-----                           --------        -------         -----------
LPCM Audio                      English         2304 kbps       2.0 / 48 kHz / 2304 kbps / 24-bit
LPCM Audio                      English         2304 kbps       2.0 / 48 kHz / 2304 kbps / 24-bit
FILES:
Name            Time In         Length          Size            Total Bitrate
----            -------         ------          ----            -------------
00002.M2TS      0:00:00.000     0:08:54.575     2 060 568 576   30 837
CHAPTERS:
Number          Time In         Length          Avg Video Rate  Max 1-Sec Rate  Max 1-Sec Time  Max 5-Sec Rate  Max 5-Sec Time  Max 10Sec Rate  Max 10Sec Time  Avg Frame Size  Max Frame Size  Max Frame Time
------          -------         ------          --------------  --------------  --------------  --------------  --------------  --------------  --------------  --------------  --------------  --------------
1               0:00:00.000     0:08:54.575     24 771 kbps     40 597 kbps     00:05:09.392    38 299 kbps     00:03:20.533    37 724 kbps     00:01:42.936    129 147 bytes   480 134 bytes   00:04:12.794
STREAM DIAGNOSTICS:
File            PID             Type            Codec           Language                Seconds                 Bitrate                 Bytes           Packets
----            ---             ----            -----           --------                --------------          --------------          -------------   -----
00002.M2TS      4113 (0x1011)   0x1B            AVC                                     534,451                 24 777                  1 655 279 109   9 003 598
00002.M2TS      4352 (0x1100)   0x80            LPCM            eng (English)           534,451                 2 311                   154 382 372     855 304
00002.M2TS      4353 (0x1101)   0x80            LPCM            eng (English)           534,451                 2 311                   154 382 372     855 304
QUICK SUMMARY:
Disc Title: When You're Strange.A Film About The DoorsDisc Size: 23 054 356 870 bytesProtection: AACSBD-Java: NoPlaylist: 00002.MPLSSize: 2 060 568 576 bytesLength: 0:08:54.575Total Bitrate: 30,84 MbpsVideo: MPEG-4 AVC Video / 24771 kbps / 1080p / 23,976 fps / 16:9 / High Profile 4.1Audio: English / LPCM Audio / 2.0 / 48 kHz / 2304 kbps / 24-bitAudio: English / LPCM Audio / 2.0 / 48 kHz / 2304 kbps / 24-bit
********************PLAYLIST: 00001.MPLS********************
Код:
Total   Video
Title                                                           Codec   Length  Movie Size      Disc Size       Bitrate Bitrate Main Audio Track                          Secondary Audio Track
-----                                                           ------  ------- --------------  --------------  ------- ------- ------------------                        ---------------------
00001.MPLS                                                      AVC     0:02:01 441 016 320     23 054 356 870  29,13   21,41   LPCM 2.0 2304Kbps (48kHz/24-bit)          DTS-HD Master 5.1 3848Kbps (48kHz/24-bit)
Код:
DISC INFO:
Disc Title:     When You're Strange.A Film About The Doors
Disc Size:      23 054 356 870 bytes
Protection:     AACS
BD-Java:        No
BDInfo:         0.5.8
PLAYLIST REPORT:
Name:                   00001.MPLS
Length:                 0:02:01.121 (h:m:s.ms)
Size:                   441 016 320 bytes
Total Bitrate:          29,13 Mbps
VIDEO:
Codec                   Bitrate             Description
-----                   -------             -----------
MPEG-4 AVC Video        21411 kbps          1080p / 23,976 fps / 16:9 / High Profile 4.1
AUDIO:
Codec                           Language        Bitrate         Description
-----                           --------        -------         -----------
LPCM Audio                      English         2304 kbps       2.0 / 48 kHz / 2304 kbps / 24-bit
DTS-HD Master Audio             English         3848 kbps       5.1 / 48 kHz / 3848 kbps / 24-bit (DTS Core: 5.1 / 48 kHz / 1509 kbps / 24-bit)
FILES:
Name            Time In         Length          Size            Total Bitrate
----            -------         ------          ----            -------------
00001.M2TS      0:00:00.000     0:02:01.121     441 016 320     29 129
CHAPTERS:
Number          Time In         Length          Avg Video Rate  Max 1-Sec Rate  Max 1-Sec Time  Max 5-Sec Rate  Max 5-Sec Time  Max 10Sec Rate  Max 10Sec Time  Avg Frame Size  Max Frame Size  Max Frame Time
------          -------         ------          --------------  --------------  --------------  --------------  --------------  --------------  --------------  --------------  --------------  --------------
1               0:00:00.000     0:02:01.121     21 411 kbps     45 556 kbps     00:00:55.972    38 553 kbps     00:00:53.928    36 202 kbps     00:01:02.270    111 629 bytes   500 090 bytes   00:01:51.319
STREAM DIAGNOSTICS:
File            PID             Type            Codec           Language                Seconds                 Bitrate                 Bytes           Packets
----            ---             ----            -----           --------                --------------          --------------          -------------   -----
00001.M2TS      4113 (0x1011)   0x1B            AVC                                     120,996                 21 434                  324 171 954     1 763 463
00001.M2TS      4352 (0x1100)   0x80            LPCM            eng (English)           120,996                 2 313                   34 979 456      193 792
00001.M2TS      4353 (0x1101)   0x86            DTS-HD MA       eng (English)           120,996                 3 852                   58 265 656      335 598
QUICK SUMMARY:
Disc Title: When You're Strange.A Film About The DoorsDisc Size: 23 054 356 870 bytesProtection: AACSBD-Java: NoPlaylist: 00001.MPLSSize: 441 016 320 bytesLength: 0:02:01.121Total Bitrate: 29,13 MbpsVideo: MPEG-4 AVC Video / 21411 kbps / 1080p / 23,976 fps / 16:9 / High Profile 4.1Audio: English / LPCM Audio / 2.0 / 48 kHz / 2304 kbps / 24-bitAudio: English / DTS-HD Master Audio / 5.1 / 48 kHz / 3848 kbps / 24-bit (DTS Core: 5.1 / 48 kHz / 1509 kbps / 24-bit)

Скриншоты



Covers

За материал спасибо chuhonka и HDGeek!!!
Other forum [Profile] [PM]

kloney

Longevity: 7 years 9 months

Posts: 1

Торрент-статистика

Post 27-May-2013 17:51 (after 4 months 4 days)

[Quote]

Помогите Скачать Пожалуйста Заранее Спасибо!
Other forum [Profile] [PM]
Display posts from previous:    
Reply to topic

The time now is: Today 10:13

All times are GMT + 3 Hours



You cannot post new topics in this forum
You cannot reply to topics in this forum
You cannot edit your posts in this forum
You cannot delete your posts in this forum
You cannot vote in polls in this forum
You cannot attach files in this forum
You cannot download files in this forum