Сегодня идет свободное скачивание без начисления Download

Жила-была девочка (1944) DVDRip

Ответить на тему
 
Автор
Сообщение

Omen ®

Стаж: 5 лет 10 месяцев

Сообщений: 184329

Торрент-статистика

Пост 22-Янв-2013 21:40

[Цитировать]

-Жила-была девочка (1944) DVDRip- Русское название: Жила-была девочка
Год выпуска: 1944
Жанр: Военный, Драма
Описание фильма:
История двух маленьких блокадниц в осаждённом Ленинграде: 7-летней Настеньки и 5-летней Катеньки. Голод, холод, путешествия через вымерзший город к Неве с санками за водой, смерть матери, ранение - всё это выпало на долю детей, перенесших наравне со взрослыми все тяготы войны.
Отличный фильм о двух маленьких девочках, которые даже в самые тяжелые времена не разучились любить и радоваться жизни! Всем советую!

Режиссер: Виктор Эйсымонт
Актеры: Нина Иванова, Наталья Защипина, Ада Войцик, Вера Алтайская, Лидия Штыкан, Александр Лариков, Николай Корн, Е. Кириллова
Продолжительность: 01:08:31

Видеокодек: Xvid
Битрейт видео: ~2038 Кбит/с
Размер кадра: 688x496
Качество видео: DVDRip
Аудиокодек: MP3,2ch
Битрейт аудио: 192 Кбит/с

MI

Общее
Полное имя : C:\Users\1\Downloads\Zhila.bila.devochka.avi
Формат : AVI
Формат/Информация : Audio Video Interleave
Размер файла : 1,07 Гбайт
Продолжительность : 1 ч. 8 м.
Общий поток : 2239 Кбит/сек
Программа кодирования : FairUse Wizard - http://fairusewizard.com
Библиотека кодирования : The best and REALLY easy backup tool
Видео
Идентификатор : 0
Формат : MPEG-4 Visual
Профиль формата : Advanced [email protected]
Параметр BVOP формата : 1
Параметр QPel формата : Нет
Параметр GMC формата : Без точки перехода
Параметр матрицы формата : Default (H.263)
Режим смешивания : Сжатый битовый поток
Идентификатор кодека : XVID
Идентификатор кодека/Подсказка : XviD
Продолжительность : 1 ч. 8 м.
Битрейт : 2038 Кбит/сек
Ширина : 688 пикселей
Высота : 496 пикселей
Соотношение сторон : 1,387
Частота кадров : 25,000 кадров/сек
Цветовое пространство : YUV
Субдискретизация насыщенности : 4:2:0
Битовая глубина : 8 бит
Тип развёртки : Прогрессивная
Метод сжатия : С потерями
Бит/(Пиксели*Кадры) : 0.239
Размер потока : 1000 Мбайт (91%)
Библиотека кодирования : XviD 1.1.0 (UTC 2005-11-22)
Аудио
Идентификатор : 1
Формат : MPEG Audio
Версия формата : Version 1
Профиль формата : Layer 3
Режим : Joint stereo
Расширение режима : MS Stereo
Идентификатор кодека : 55
Идентификатор кодека/Подсказка : MP3
Продолжительность : 1 ч. 8 м.
Вид битрейта : Постоянный
Битрейт : 192 Кбит/сек
Каналы : 2 канала
Частота : 48,0 КГц
Метод сжатия : С потерями
Размер потока : 94,2 Мбайт (9%)
Выравнивание : Соединение по промежуткам
Продолжительность промежутка : 40 мс. (1,00 видеокадр)
Время предзагрузки промежутка : 504 мс.
Библиотека кодирования : LAME3.97b
Настройки программы : -m j -V 4 -q 2 -lowpass 18.6 -b 192
Скриншоты:
         
         

Рецензия, отзыв о фильме

Есть много фильмов о войне, этот занимает особое место. Говорят, что у войны не женское лицо, но и детское лицо на войне - шок. Подумать только, ведь снимали в блокадном Ленинграде! Юные девочки очень удачно воплотили образы трогательных и сильных героинь. Настенька - степенная, не по годам зрелая и мудрая... Катюшка - смешная, вся фейерверк, вся напоказ! Наверное, кто-то узнал актрису Нину Иванову, которая запомнилась мне по фильму Весна на заречной улице, где она играла учительницу Татьяну Сергеевну. И Наталью Защипину я помню только в одной роли в кинофильме Евдокия, где она играет роль одной из приёмных дочерей. Спасибо огромное за доброе, человечное и искреннее Кино, Кино, надрывающее душу.
Вне форума [Профиль] [ЛС]
Показать сообщения:    
Ответить на тему

Текущее время: Сегодня 06:37

Часовой пояс: GMT + 3



Вы не можете начинать темы
Вы не можете отвечать на сообщения
Вы не можете редактировать свои сообщения
Вы не можете удалять свои сообщения
Вы не можете голосовать в опросах
Вы не можете прикреплять файлы к сообщениям
Вы не можете скачивать файлы