Today is a free download without charge Download

Всё просто (Соня Карпунина) [2012, Россия, Мелодрама, комедия, DVD9]

Reply to topic
 
Author
Message

Meshanik ®

Gender:

Longevity: 9 years 3 months

Posts: 3866

Location: Los Angeles

Торрент-статистика

Post 22-Jan-2013 21:21

[Quote]

Всё просто
«Из гламура в трэш за 6 дней»
- Оригинальное название: Всё просто
Год выпуска: 2012
Производство: ВайТ Медиа [Россия]
Жанр: Мелодрама, комедия
Продолжительность: 01:34:38
Перевод: Не требуется [Русский язык]
Субтитры: Вшитые отключаемые
Язык субтитров: Английский-Режиссер: Соня Карпунина
Сценарий: Соня Карпунина, Клим Шипенко
Продюсер: Владимир Малышев, Андрей Малышев, Тимур Вайнштейн, ...
В ролях: Соня Карпунина, Агния Кузнецова, Клим Шипенко, Константин Крюков, Александр Яценко, Артем Быстров, Любовь Толкалина, Михаил Бабичев, Александр Самойленко, Донатас Грудович-Описание фильма:
Надя из Питера, учится в Лондоне. Родители создают возможность жить без особых забот и хлопот. Молодой человек Женя работает в Москве в крупной компании и подает большие надежды. Одно расстройство — из-за перспективной работы Женя переехал в Москву, а Надя осталась в Лондоне. 3000 километров — слишком далеко. И Надя решает сделать Жене сюрприз — приехать в гости без предупреждения. В итоге, сюрпризы ожидают не только Женю, но и Надю.-Дата российской премьеры: 6 декабря 2012, «Парадиз»
Дата выхода DVD релиза: 22 января 2013, «Парадиз Медиа»-
Возраст 16+ - зрителям, достигшим 16 лет-Качество видео: DVD9 (R5)
Видео: MPEG-2, [email protected] (PAL 16:9), ~8400 kbps, Bit/Pixel: 0.818
Аудио 1: AC3 5.1, 384 kbps [Русский]
Аудио 2: AC3 2.0, 192 kbps [Русский]
-

Дополнительные материалы...

  • Скоро на DVD

DVDInfo…

Title: Всё.просто.(2012).DVD9
Size: 6.90 Gb ( 7 231 062 KBytes ) - DVD-9
Enabled regions: 1, 2, 3, 4, 5, 6, 7, 8
VTS_01 :
Play Length: 00:00:01+01:34:38
Video: PAL 16:9 (720x576) VBR, Auto Pan&Scan
Audio:
Russian (Dolby AC3, 6 ch)
Russian (Dolby AC3, 2 ch)
Subtitles:
English
VTS_02 :
Play Length: 00:00:01+00:00:15
Video: PAL 16:9 (720x576) VBR, Auto Pan&Scan
Audio:
Russian (Dolby AC3, 2 ch)
VTS_03 :
Play Length: 00:00:01+00:00:17
Video: PAL 16:9 (720x576) VBR, Auto Pan&Scan
Audio:
Russian (Dolby AC3, 2 ch)
VTS_04 :
Play Length: 00:00:01+00:12:26
Video: PAL 16:9 (720x576) VBR, Auto Pan&Scan
Audio:
Russian (Dolby AC3, 2 ch)

MediaInfo...

Полное имя : D:\Всё.просто.(2012).DVD9\VIDEO_TS\VTS_01_1.VOB
Формат : MPEG-PS
Размер файла : 1024 Мбайт
Продолжительность : 15 м.
Общий поток : 9240 Кбит/сек
Видео
Идентификатор : 224 (0xE0)
Формат : MPEG Video
Версия формата : Version 2
Профиль формата : [email protected]
Параметр BVOP формата : Да
Параметр матрицы формата : Выборочная
Продолжительность : 15 м.
Битрейт : 8480 Кбит/сек
Максимальный битрейт : 6000 Кбит/сек
Ширина : 720 пикселей
Высота : 576 пикселей
Соотношение сторон : 16:9
Частота кадров : 25,000 кадров/сек
Стандарт вещания : PAL
Цветовое пространство : YUV
Субдискретизация насыщенности : 4:2:0
Битовая глубина : 8 бит
Тип развёртки : Чересстрочная
Порядок развёртки : Нижнее поле первое
Метод сжатия : С потерями
Бит/(Пиксели*Кадры) : 0.818
Размер потока : 940 Мбайт (92%)
Аудио #1
Идентификатор : 189 (0xBD)-128 (0x80)
Формат : AC-3
Формат/Информация : Audio Coding 3
Расширение режима : CM (complete main)
Параметр Endianness формата : Big
Режим смешивания : DVD-Video
Продолжительность : 15 м.
Вид битрейта : Постоянный
Битрейт : 384 Кбит/сек
Каналы : 6 каналов
Расположение каналов : Front: L C R, Side: L R, LFE
Частота : 48,0 КГц
Битовая глубина : 16 бит
Метод сжатия : С потерями
Размер потока : 42,5 Мбайт (4%)
Аудио #2
Идентификатор : 189 (0xBD)-129 (0x81)
Формат : AC-3
Формат/Информация : Audio Coding 3
Расширение режима : CM (complete main)
Параметр Endianness формата : Big
Режим смешивания : DVD-Video
Продолжительность : 15 м.
Вид битрейта : Постоянный
Битрейт : 192 Кбит/сек
Каналы : 2 канала
Расположение каналов : Front: L R
Частота : 48,0 КГц
Битовая глубина : 16 бит
Метод сжатия : С потерями
Размер потока : 21,3 Мбайт (2%)
Текст
Идентификатор : 189 (0xBD)-32 (0x20)
Формат : RLE
Формат/Информация : Run-length encoding
Режим смешивания : DVD-Video
Меню

Скриншоты меню...

     

Скриншоты:

       
       
Other forum [Profile] [PM]
Display posts from previous:    
Reply to topic

The time now is: Today 13:32

All times are GMT + 3 Hours



You cannot post new topics in this forum
You cannot reply to topics in this forum
You cannot edit your posts in this forum
You cannot delete your posts in this forum
You cannot vote in polls in this forum
You cannot attach files in this forum
You cannot download files in this forum