Today is a free download without charge Download

Диафильмы со звуком 2 / Audio Diafilms [Диафильмы, DVDRip]

Reply to topic
 
Author
Message

Omen ®

Longevity: 7 years 11 months

Posts: 181087

Торрент-статистика

Post 06-May-2011 09:50

[Quote]

Диафильмы со звуком 2 -Названия:Беспокойный Яшка, Бычок-черный бочек, белое копытце, Два Плута и др.
Год выпуска:2011
Жанр: Детские, Диафильмы
Издательство: издательский дом «Амфора-Медиа»
Страна: СССР
Перевод: Не требуется-Видео кодек: MPEG-4 Visual
Аудио кодек: MP3
Видео: DVDRip, PAL 4:3, 704х528, 25.000 fps, 861 Kbps
Аудио: 112 kbps, 44 kHz, stereo, 2 channels -Описание:Ура! В России стали возрождать выпуск диафильмов. Только предпринимателям пришлось изобрести велосипед заново, а именно, изобрести абсолютно новую модель проектора для диафильмов, заказав её изготовление (как Вы правильно догадались!) в Китае.
Дело в том, что старые проекторы, во-первых, уже никто не выпускает. А во-вторых, их выпуск по старым чертежам оказался ну абсолютно нерентабельным.
Тем не менее, новый проектор для диафильмов сохраняет и все прелести ретро и имеет новшество, а именно – возможность прокрутки диафильма с звуком, со звуковым сопровождением.
Более того, сам процесс прокрутки и сметы кассет стал несколько легче, для того, чтобы ребёнок мог сам «менять сказки».
Уникальный случай в практике бизнеса: товаропроизводитель БОИТСЯ давать рекламу, мотивируя это тем, что подобная реклама может СПРОВОЦИРОВАТЬ СПРОС, а существующий выпуск диафильмов пока не в состоянии покрыть нужды всех интересующихся и восторженных…
Да, что и говорить – соскучились россияне по любимым с детства диафильмам… А началось всё с бума аудиокниги. Чтобы издавать КАЧЕСТВЕННЫЕ детские аудиокниги, издательства кинулись к золотой классике, начитанной голосами чтецов старой актёрской школы, к аудиоспектаклям, в общем ко всему тому, что мы слушали всё своё детство на виниловых пластинках… Ну а от виниловых пластинок с голосами Марии Бабановой, Клары Румяновой и прочих звёзд советского театра до ассоциативной цепочки перекинутой к диафильмам – рукой подать… Так возникла бизнес-идея возродить проектор, показывающий на стенке слайды при выключенном свете…
-

Состав раздачи


Список диафильмов:
01. Беспокойный Яшка
02. Бычок-черный бочек, белое копытце
03. Два Плута
04. Храбрый портной
05. Как поссорились две кошки
06. Кот-серый лоб, козел да баран
07. Лоскутик и облако
08. Попугай и черепаха
09. Про Машеньку и зубную щетку
10. Проделки братца кролика
11. Счастливый Ганс
12. Сказка о золотом петушке
13. Тростниковая шапка
14. Ухти-тухти
15. Вежливое слово
16. Война крокодилов
17. Зимовье зверей
18. Звери наших лесов
-

Видео:

Format : MPEG-4 Visual
Format profile : Advanced [email protected]
Format settings, BVOP : No
Format settings, QPel : No
Format settings, GMC : No warppoints
Format settings, Matrix : Custom
Codec ID : XVID
Codec ID/Hint : XviD
Duration : 7mn 41s
Bit rate : 861 Kbps
Width : 704 pixels
Height : 528 pixels
Display aspect ratio : 4:3
Frame rate : 25.000 fps
Color space : YUV
Chroma subsampling : 4:2:0
Bit depth : 8 bits
Scan type : Progressive
Bits/(Pixel*Frame) : 0.093
Stream size : 47.4 MiB (88%)
Writing library : XviD 1.2.1 (UTC 2008-12-04)
-

Звук:

Format : MPEG Audio
Format version : Version 1
Format profile : Layer 3
Mode : Joint stereo
Mode extension : MS Stereo
Codec ID : 55
Codec ID/Hint : MP3
Duration : 7mn 41s
Bit rate mode : Constant
Bit rate : 112 Kbps
Channel(s) : 2 channels
Sampling rate : 44.1 KHz
Stream size : 6.17 MiB (11%)
Alignment : Split accross interleaves
Interleave, duration : 80 ms (2.00 video frames)
Interleave, preload duration : 500 ms
Writing library : LAME3.98r
Encoding settings : -m j -V 4 -q 2 -lowpass 15.6 -b 112
Language : Russian
-

Скриншоты

    


Last edited by Omen on 2011-05-06 09:54; edited 2 times in total
Other forum [Profile] [PM]

Dracula

Longevity: 7 years

Posts: 11377

Торрент-статистика

Post 07-May-2011 13:49 (after 1 day 3 hours)

Топик был перенесен из форума Комиксы в форум Отечественные мультфильмы

kogesan
 
Display posts from previous:    
Reply to topic

The time now is: Today 07:54

All times are GMT + 3 Hours



You cannot post new topics in this forum
You cannot reply to topics in this forum
You cannot edit your posts in this forum
You cannot delete your posts in this forum
You cannot vote in polls in this forum
You cannot attach files in this forum
You cannot download files in this forum