Today is a free download without charge Download

Диафильмы со звуком / Audio Diafilms [Диафильмы, DVDRip]

Reply to topic
 
Author
Message

Omen ®

Longevity: 7 years 11 months

Posts: 181087

Торрент-статистика

Post 06-May-2011 09:28

[Quote]

Диафильмы со звуком-Названия:Что такое хорошо, Слон, Зайка и др.
Год выпуска:2011
Жанр: Детские, Диафильмы
Издательство: издательский дом «Амфора-Медиа»
Страна: СССР
Перевод: Не требуется-Видео кодек: WMV3
Аудио кодек: WMA
Видео: DVDRip, PAL 4:3, 720х576, 25.000 fps, 680 Kbps
Аудио: 160 kbps, 48 kHz, stereo (A/V) 1-pass CBR -Описание:Ура! В России стали возрождать выпуск диафильмов. Только предпринимателям пришлось изобрести велосипед заново, а именно, изобрести абсолютно новую модель проектора для диафильмов, заказав её изготовление (как Вы правильно догадались!) в Китае.
Дело в том, что старые проекторы, во-первых, уже никто не выпускает. А во-вторых, их выпуск по старым чертежам оказался ну абсолютно нерентабельным.
Тем не менее, новый проектор для диафильмов сохраняет и все прелести ретро и имеет новшество, а именно – возможность прокрутки диафильма с звуком, со звуковым сопровождением.
Более того, сам процесс прокрутки и сметы кассет стал несколько легче, для того, чтобы ребёнок мог сам «менять сказки».
Уникальный случай в практике бизнеса: товаропроизводитель БОИТСЯ давать рекламу, мотивируя это тем, что подобная реклама может СПРОВОЦИРОВАТЬ СПРОС, а существующий выпуск диафильмов пока не в состоянии покрыть нужды всех интересующихся и восторженных…
Да, что и говорить – соскучились россияне по любимым с детства диафильмам… А началось всё с бума аудиокниги. Чтобы издавать КАЧЕСТВЕННЫЕ детские аудиокниги, издательства кинулись к золотой классике, начитанной голосами чтецов старой актёрской школы, к аудиоспектаклям, в общем ко всему тому, что мы слушали всё своё детство на виниловых пластинках… Ну а от виниловых пластинок с голосами Марии Бабановой, Клары Румяновой и прочих звёзд советского театра до ассоциативной цепочки перекинутой к диафильмам – рукой подать… Так возникла бизнес-идея возродить проектор, показывающий на стенке слайды при выключенном свете…
-

Состав раздачи


Список видеокниг:
01 Бемби - Детство
02 Бемби - Зима
03 Бемби - Весна
04 Что такое хорошо
05 Зайка
06 Слон
Список диафильмов:
07 Кот серый лоб, козел да баран
08 Два медвежонка
09 Про лису Лариску и зайца Коську
10 Крапивная Горка
11 Принцесса на горошине
12 Гость
13 Косточка
14 Приключения Мак-Легана
15 Маша и Медведь
16 Филипок
17 Акула
18 Котенок
19 Лисичка-сестричка и Серый Волк
20 Чеграш
21 Как мужик шел по следу
22 Три Медведя
23 Репка
24 Бабушка Метелица
25 Морозко
26 Красная Шапочка
-

Видео:

Видеоданные1:
Format : VC-1
Format profile : [email protected]
Codec ID : WMV3
Codec ID/Info : Windows Media Video 9
Codec ID/Hint : WMV3
Deion of the codec : Windows Media Video 9 - Professional
Duration : 2mn 27s
Bit rate mode : Constant
Bit rate : 4 200 Kbps
Width : 1 920 pixels
Height : 1 080 pixels
Display aspect ratio : 16:9
Frame rate : 7.000 fps
Bit depth : 8 bits
Scan type : Progressive
Bits/(Pixel*Frame) : 0.289
Stream size : 74.0 MiB (95%)
Language : Russian
Видеоданные2:
Format : MPEG-4 Visual
Format profile : Advanced [email protected]
Format settings, BVOP : Yes
Format settings, QPel : No
Format settings, GMC : No warppoints
Format settings, Matrix : Default (H.263)
Muxing mode : Packed bitstream
Codec ID : XVID
Codec ID/Hint : XviD
Duration : 1mn 36s
Bit rate : 680 Kbps
Width : 720 pixels
Height : 576 pixels
Display aspect ratio : 5:4
Frame rate : 25.000 fps
Standard : PAL
Color space : YUV
Chroma subsampling : 4:2:0
Bit depth : 8 bits
Scan type : Progressive
Bits/(Pixel*Frame) : 0.066
Stream size : 7.81 MiB (100%)
Writing library : XviD 1.2.0.dev47 (UTC 2006-11-01)
-

Звук:

Аудиоданные1: : WMA
Format version : Version 2
Codec ID : 161
Codec ID/Info : Windows Media Audio
Deion of the codec : Windows Media Audio 9.2 - 160 kbps, 48 kHz, stereo (A/V) 1-pass CBR
Duration : 2mn 27s
Bit rate mode : Constant
Bit rate : 160 Kbps
Channel(s) : 2 channels
Sampling rate : 48.0 KHz
Bit depth : 16 bits
Stream size : 2.82 MiB (4%)
Language : Russian
Аудиоданные2:
Format : MPEG Audio
Format version : Version 1
Format profile : Layer 3
Codec ID : 55
Codec ID/Hint : MP3
Duration : 1mn 36s
Bit rate mode : Constant
Bit rate : 256 Kbps
Channel(s) : 2 channels
Sampling rate : 32.0 KHz
Stream size : 2.94 MiB (38%)
Alignment : Aligned on interleaves
Interleave, duration : 40 ms (1.00 video frame)
-

Скриншоты страниц

    


Last edited by Omen on 2011-05-06 09:39; edited 1 time in total
Other forum [Profile] [PM]

Dracula

Longevity: 7 years

Posts: 11354

Торрент-статистика

Post 07-May-2011 13:48 (after 1 day 4 hours)

Топик был перенесен из форума Комиксы в форум Отечественные мультфильмы

kogesan
 
Display posts from previous:    
Reply to topic

The time now is: Today 00:01

All times are GMT + 3 Hours



You cannot post new topics in this forum
You cannot reply to topics in this forum
You cannot edit your posts in this forum
You cannot delete your posts in this forum
You cannot vote in polls in this forum
You cannot attach files in this forum
You cannot download files in this forum