Today is a free download without charge Download

VA - Saxophobia - Sexy And Lounge (2009) [MP3|~245 кб/с (V0)]<Instrumental, Jazz, Pop-Rock, Lounge>

Reply to topic
 
Author
Message

Omen ®

Longevity: 9 years 2 months

Posts: 181086

Торрент-статистика

Post 22-Jan-2013 19:10

[Quote]

-VA - Saxophobia - Sexy And Lounge (2009)-
Год: 2009
Жанр: Instrumental, Jazz, Pop-Rock, Lounge
Продолжительность: 01:14:21
Кодек: MP3
Битрейт: ~245 кб/с (V0)
Тип битрейта: VBR
Трек лист:
01. Natalie Marchenko - Lily Was Here
02. Brian Culbertson ft. Larry Graham & Ronnie Laws - The House Of The Music
03. George Benson - Living In High Definition
04. Amanda Lear - For What I Am (RnB Version)
05. Steffen Waltenberger Band - Little Blue Girl
06. Steve Dyer - Cape Wind
07. Marion Meadows - Flirt
08. Norah Jones - More Than This
09. Richard Elliot - Moomba
10. Kaori Kobayashi - Nothing's Gonna Change My Love For You
11. Jeff Kashiwa - Power Of Midnight
12. Tribe - Where Am I
13. Tito Beltran, City Of Prague Philharmonic & Stapleton - Caruso
14. Romantic Saxophone Quintet - How Deep Is Your Love
15. Jessy J - Pb 'n' J

MediaInfo&#58;

Общее
Полное имя : D:\Моя музыка\VA - Saxophobia - Sexy And Lounge (2009)\01. Natalie Marchenko - Lily Was Here.mp3
Формат : MPEG Audio
Размер файла : 5,56 Мбайт
Продолжительность : 4 м. 14 с.
Режим общего битрейта : Переменный
Общий поток : 179 Кбит/сек
Альбом : Saxophobia (Sexy & Lounge)
Альбом/Исполнитель : Natalie Marchenko
Трек : Lily Was Here
Трек/Положение : 01
Исполнитель : Natalie Marchenko
Жанр : Saxophone
Дата записи : 2009
Библиотека кодирования : LAME3.97
Обложка : Yes
Тип обложки : Cover (front)
MIME-тип обложки : image/jpg
Примечание : .:: Saxophobia ::.
Аудио
Формат : MPEG Audio
Версия формата : Version 1
Профиль формата : Layer 3
Режим : Joint stereo
Расширение режима : MS Stereo
Продолжительность : 4 м. 14 с.
Вид битрейта : Переменный
Битрейт : 179 Кбит/сек
Минимальный битрейт : 32,0 Кбит/сек
Каналы : 2 канала
Частота : 44,1 КГц
Метод сжатия : С потерями
Размер потока : 5,44 Мбайт (98%)
Библиотека кодирования : LAME3.97
Настройки программы : -m j -V 2 -q 3 -lowpass 18.6 --vbr-new -b 32
Общее
Полное имя : D:\Моя музыка\VA - Saxophobia - Sexy And Lounge (2009)\02. Brian Culbertson Ft. Larry Graham & Ronnie Laws - The House Of The Music.mp3
Формат : MPEG Audio
Размер файла : 7,17 Мбайт
Продолжительность : 4 м. 52 с.
Режим общего битрейта : Переменный
Общий поток : 202 Кбит/сек
Альбом : Saxophobia (Sexy & Lounge)
Альбом/Исполнитель : Brian Culbertson Ft. Larry Graham & Ronnie Laws
Трек : The House Of The Music
Трек/Положение : 02
Исполнитель : Brian Culbertson Ft. Larry Graham & Ronnie Laws
Жанр : Saxophone
Дата записи : 2009
Библиотека кодирования : LAME3.97
Обложка : Yes
Тип обложки : Cover (front)
MIME-тип обложки : image/jpg
Примечание : .:: Saxophobia ::.
Аудио
Формат : MPEG Audio
Версия формата : Version 1
Профиль формата : Layer 3
Режим : Joint stereo
Продолжительность : 4 м. 52 с.
Вид битрейта : Переменный
Битрейт : 202 Кбит/сек
Минимальный битрейт : 32,0 Кбит/сек
Каналы : 2 канала
Частота : 44,1 КГц
Метод сжатия : С потерями
Размер потока : 7,05 Мбайт (98%)
Библиотека кодирования : LAME3.97
Настройки программы : -m j -V 2 -q 3 -lowpass 18.6 --vbr-new -b 32
Общее
Полное имя : D:\Моя музыка\VA - Saxophobia - Sexy And Lounge (2009)\03. George Benson - Living In High Definition.mp3
Формат : MPEG Audio
Размер файла : 11,0 Мбайт
Продолжительность : 7 м. 14 с.
Режим общего битрейта : Переменный
Общий поток : 209 Кбит/сек
Альбом : Saxophobia (Sexy & Lounge)
Альбом/Исполнитель : George Benson
Трек : Living In High Definition
Трек/Положение : 03
Исполнитель : George Benson
Жанр : Saxophone
Дата записи : 2009
Библиотека кодирования : LAME3.97
Обложка : Yes
Тип обложки : Cover (front)
MIME-тип обложки : image/jpg
Примечание : .:: Saxophobia ::.
Аудио
Формат : MPEG Audio
Версия формата : Version 1
Профиль формата : Layer 3
Режим : Joint stereo
Расширение режима : MS Stereo
Продолжительность : 7 м. 14 с.
Вид битрейта : Переменный
Битрейт : 209 Кбит/сек
Минимальный битрейт : 32,0 Кбит/сек
Каналы : 2 канала
Частота : 44,1 КГц
Метод сжатия : С потерями
Размер потока : 10,9 Мбайт (99%)
Библиотека кодирования : LAME3.97
Настройки программы : -m j -V 2 -q 3 -lowpass 18.6 --vbr-new -b 32
Общее
Полное имя : D:\Моя музыка\VA - Saxophobia - Sexy And Lounge (2009)\04. Amanda Lear - For What I Am (Rnb Version).mp3
Формат : MPEG Audio
Размер файла : 4,58 Мбайт
Продолжительность : 3 м. 30 с.
Режим общего битрейта : Переменный
Общий поток : 178 Кбит/сек
Альбом : Saxophobia (Sexy & Lounge)
Альбом/Исполнитель : Amanda Lear
Трек : For What I Am (Rnb Version)
Трек/Положение : 04
Исполнитель : Amanda Lear
Жанр : Saxophone
Дата записи : 2009
Библиотека кодирования : LAME3.97
Обложка : Yes
Тип обложки : Cover (front)
MIME-тип обложки : image/jpg
Примечание : .:: Saxophobia ::.
Аудио
Формат : MPEG Audio
Версия формата : Version 1
Профиль формата : Layer 3
Режим : Joint stereo
Расширение режима : MS Stereo
Продолжительность : 3 м. 30 с.
Вид битрейта : Переменный
Битрейт : 178 Кбит/сек
Минимальный битрейт : 32,0 Кбит/сек
Каналы : 2 канала
Частота : 44,1 КГц
Метод сжатия : С потерями
Размер потока : 4,46 Мбайт (97%)
Библиотека кодирования : LAME3.97
Настройки программы : -m j -V 2 -q 3 -lowpass 18.6 --vbr-new -b 32
Общее
Полное имя : D:\Моя музыка\VA - Saxophobia - Sexy And Lounge (2009)\05. Steffen Waltenberger Band - Little Blue Girl.mp3
Формат : MPEG Audio
Размер файла : 6,60 Мбайт
Продолжительность : 5 м. 3 с.
Режим общего битрейта : Переменный
Общий поток : 179 Кбит/сек
Альбом : Saxophobia (Sexy & Lounge)
Альбом/Исполнитель : Steffen Waltenberger Band
Трек : Little Blue Girl
Трек/Положение : 05
Исполнитель : Steffen Waltenberger Band
Жанр : Saxophone
Дата записи : 2009
Библиотека кодирования : LAME3.97
Обложка : Yes
Тип обложки : Cover (front)
MIME-тип обложки : image/jpg
Примечание : .:: Saxophobia ::.
Аудио
Формат : MPEG Audio
Версия формата : Version 1
Профиль формата : Layer 3
Режим : Joint stereo
Расширение режима : MS Stereo
Продолжительность : 5 м. 3 с.
Вид битрейта : Переменный
Битрейт : 179 Кбит/сек
Минимальный битрейт : 32,0 Кбит/сек
Каналы : 2 канала
Частота : 44,1 КГц
Метод сжатия : С потерями
Размер потока : 6,48 Мбайт (98%)
Библиотека кодирования : LAME3.97
Настройки программы : -m j -V 2 -q 3 -lowpass 18.6 --vbr-new -b 32
Общее
Полное имя : D:\Моя музыка\VA - Saxophobia - Sexy And Lounge (2009)\06. Steve Dyer - Cape Wind.mp3
Формат : MPEG Audio
Размер файла : 8,68 Мбайт
Продолжительность : 6 м. 31 с.
Режим общего битрейта : Переменный
Общий поток : 183 Кбит/сек
Альбом : Saxophobia (Sexy & Lounge)
Альбом/Исполнитель : Steve Dyer
Трек : Cape Wind
Трек/Положение : 06
Исполнитель : Steve Dyer
Жанр : Saxophone
Дата записи : 2009
Библиотека кодирования : LAME3.97
Обложка : Yes
Тип обложки : Cover (front)
MIME-тип обложки : image/jpg
Примечание : .:: Saxophobia ::.
Аудио
Формат : MPEG Audio
Версия формата : Version 1
Профиль формата : Layer 3
Режим : Joint stereo
Расширение режима : MS Stereo
Продолжительность : 6 м. 31 с.
Вид битрейта : Переменный
Битрейт : 183 Кбит/сек
Минимальный битрейт : 32,0 Кбит/сек
Каналы : 2 канала
Частота : 44,1 КГц
Метод сжатия : С потерями
Размер потока : 8,56 Мбайт (99%)
Библиотека кодирования : LAME3.97
Настройки программы : -m j -V 2 -q 3 -lowpass 18.6 --vbr-new -b 32
Общее
Полное имя : D:\Моя музыка\VA - Saxophobia - Sexy And Lounge (2009)\07. Marion Meadows - Flirt.mp3
Формат : MPEG Audio
Размер файла : 6,13 Мбайт
Продолжительность : 4 м. 20 с.
Режим общего битрейта : Переменный
Общий поток : 193 Кбит/сек
Альбом : Saxophobia (Sexy & Lounge)
Альбом/Исполнитель : Marion Meadows
Трек : Flirt
Трек/Положение : 07
Исполнитель : Marion Meadows
Жанр : Saxophone
Дата записи : 2009
Библиотека кодирования : LAME3.97
Обложка : Yes
Тип обложки : Cover (front)
MIME-тип обложки : image/jpg
Примечание : .:: Saxophobia ::.
Аудио
Формат : MPEG Audio
Версия формата : Version 1
Профиль формата : Layer 3
Режим : Joint stereo
Расширение режима : MS Stereo
Продолжительность : 4 м. 20 с.
Вид битрейта : Переменный
Битрейт : 193 Кбит/сек
Минимальный битрейт : 32,0 Кбит/сек
Каналы : 2 канала
Частота : 44,1 КГц
Метод сжатия : С потерями
Размер потока : 6,01 Мбайт (98%)
Библиотека кодирования : LAME3.97
Настройки программы : -m j -V 2 -q 3 -lowpass 18.6 --vbr-new -b 32
Общее
Полное имя : D:\Моя музыка\VA - Saxophobia - Sexy And Lounge (2009)\08. Norah Jones - More Than This.mp3
Формат : MPEG Audio
Размер файла : 4,55 Мбайт
Продолжительность : 4 м. 9 с.
Режим общего битрейта : Переменный
Общий поток : 149 Кбит/сек
Альбом : Saxophobia (Sexy & Lounge)
Альбом/Исполнитель : Norah Jones
Трек : More Than This
Трек/Положение : 08
Исполнитель : Norah Jones
Жанр : Saxophone
Дата записи : 2009
Библиотека кодирования : LAME3.97
Обложка : Yes
Тип обложки : Cover (front)
MIME-тип обложки : image/jpg
Примечание : .:: Saxophobia ::.
Аудио
Формат : MPEG Audio
Версия формата : Version 1
Профиль формата : Layer 3
Режим : Joint stereo
Расширение режима : MS Stereo
Продолжительность : 4 м. 9 с.
Вид битрейта : Переменный
Битрейт : 149 Кбит/сек
Минимальный битрейт : 32,0 Кбит/сек
Каналы : 2 канала
Частота : 44,1 КГц
Метод сжатия : С потерями
Размер потока : 4,43 Мбайт (97%)
Библиотека кодирования : LAME3.97
Настройки программы : -m j -V 2 -q 3 -lowpass 18.6 --vbr-new -b 32
Общее
Полное имя : D:\Моя музыка\VA - Saxophobia - Sexy And Lounge (2009)\09. Richard Elliot - Moomba.mp3
Формат : MPEG Audio
Размер файла : 6,90 Мбайт
Продолжительность : 4 м. 56 с.
Режим общего битрейта : Переменный
Общий поток : 192 Кбит/сек
Альбом : Saxophobia (Sexy & Lounge)
Альбом/Исполнитель : Richard Elliot
Трек : Moomba
Трек/Положение : 09
Исполнитель : Richard Elliot
Жанр : Saxophone
Дата записи : 2009
Библиотека кодирования : LAME3.97
Обложка : Yes
Тип обложки : Cover (front)
MIME-тип обложки : image/jpg
Примечание : .:: Saxophobia ::.
Аудио
Формат : MPEG Audio
Версия формата : Version 1
Профиль формата : Layer 3
Режим : Joint stereo
Расширение режима : MS Stereo
Продолжительность : 4 м. 56 с.
Вид битрейта : Переменный
Битрейт : 192 Кбит/сек
Минимальный битрейт : 32,0 Кбит/сек
Каналы : 2 канала
Частота : 44,1 КГц
Метод сжатия : С потерями
Размер потока : 6,78 Мбайт (98%)
Библиотека кодирования : LAME3.97
Настройки программы : -m j -V 2 -q 3 -lowpass 18.6 --vbr-new -b 32
Общее
Полное имя : D:\Моя музыка\VA - Saxophobia - Sexy And Lounge (2009)\10. Kaori Kobayashi - Nothing's Gonna Change My Love For You.mp3
Формат : MPEG Audio
Размер файла : 10,3 Мбайт
Продолжительность : 5 м. 26 с.
Режим общего битрейта : Переменный
Общий поток : 262 Кбит/сек
Альбом : Saxophobia (Sexy & Lounge)
Альбом/Исполнитель : Kaori Kobayashi
Трек : Nothing's Gonna Change My Love For You
Трек/Положение : 10
Исполнитель : Kaori Kobayashi
Жанр : Saxophone
Дата записи : 2009
Библиотека кодирования : LAME3.96r
Обложка : Yes
Тип обложки : Cover (front)
MIME-тип обложки : image/jpg
Примечание : .:: Saxophobia ::.
Аудио
Формат : MPEG Audio
Версия формата : Version 1
Профиль формата : Layer 3
Режим : Joint stereo
Продолжительность : 5 м. 26 с.
Вид битрейта : Переменный
Битрейт : 262 Кбит/сек
Минимальный битрейт : 128 Кбит/сек
Каналы : 2 канала
Частота : 44,1 КГц
Метод сжатия : С потерями
Размер потока : 10,2 Мбайт (99%)
Библиотека кодирования : LAME3.96r
Настройки программы : -m j -V 0 -q 3 -lowpass 19.5 --vbr-new -b 128
Общее
Полное имя : D:\Моя музыка\VA - Saxophobia - Sexy And Lounge (2009)\11. Jeff Kashiwa - Power Of Midnight.mp3
Формат : MPEG Audio
Размер файла : 7,34 Мбайт
Продолжительность : 5 м. 0 с.
Режим общего битрейта : Переменный
Общий поток : 202 Кбит/сек
Альбом : Saxophobia (Sexy & Lounge)
Альбом/Исполнитель : Jeff Kashiwa
Трек : Power Of Midnight
Трек/Положение : 11
Исполнитель : Jeff Kashiwa
Жанр : Saxophone
Дата записи : 2009
Библиотека кодирования : LAME3.97
Обложка : Yes
Тип обложки : Cover (front)
MIME-тип обложки : image/jpg
Примечание : .:: Saxophobia ::.
Аудио
Формат : MPEG Audio
Версия формата : Version 1
Профиль формата : Layer 3
Режим : Joint stereo
Расширение режима : MS Stereo
Продолжительность : 5 м. 0 с.
Вид битрейта : Переменный
Битрейт : 202 Кбит/сек
Минимальный битрейт : 32,0 Кбит/сек
Каналы : 2 канала
Частота : 44,1 КГц
Метод сжатия : С потерями
Размер потока : 7,22 Мбайт (98%)
Библиотека кодирования : LAME3.97
Настройки программы : -m j -V 2 -q 3 -lowpass 18.6 --vbr-new -b 32
Общее
Полное имя : D:\Моя музыка\VA - Saxophobia - Sexy And Lounge (2009)\12. Tribe - Where Am I.mp3
Формат : MPEG Audio
Размер файла : 9,40 Мбайт
Продолжительность : 7 м. 6 с.
Режим общего битрейта : Переменный
Общий поток : 183 Кбит/сек
Альбом : Saxophobia (Sexy & Lounge)
Альбом/Исполнитель : Tribe
Трек : Where Am I
Трек/Положение : 12
Исполнитель : Tribe
Жанр : Saxophone
Дата записи : 2009
Библиотека кодирования : LAME3.97
Обложка : Yes
Тип обложки : Cover (front)
MIME-тип обложки : image/jpg
Примечание : .:: Saxophobia ::.
Аудио
Формат : MPEG Audio
Версия формата : Version 1
Профиль формата : Layer 3
Режим : Joint stereo
Расширение режима : MS Stereo
Продолжительность : 7 м. 6 с.
Вид битрейта : Переменный
Битрейт : 183 Кбит/сек
Минимальный битрейт : 32,0 Кбит/сек
Каналы : 2 канала
Частота : 44,1 КГц
Метод сжатия : С потерями
Размер потока : 9,28 Мбайт (99%)
Библиотека кодирования : LAME3.97
Настройки программы : -m j -V 2 -q 3 -lowpass 18.6 --vbr-new -b 32
Общее
Полное имя : D:\Моя музыка\VA - Saxophobia - Sexy And Lounge (2009)\1260619925_m_o_d_7332_ja.jpg
Формат : JPEG
Размер файла : 20,4 Кбайт
Изображения
Формат : JPEG
Ширина : 450 пикселей
Высота : 450 пикселей
Цветовое пространство : YUV
Субдискретизация насыщенности : 4:2:0
Битовая глубина : 8 бит
Метод сжатия : С потерями
Размер потока : 20,4 Кбайт (100%)
Общее
Полное имя : D:\Моя музыка\VA - Saxophobia - Sexy And Lounge (2009)\13. Tito Beltran, City Of Prague Philharmonic & Stapleton - Caruso.mp3
Формат : MPEG Audio
Размер файла : 5,86 Мбайт
Продолжительность : 4 м. 20 с.
Режим общего битрейта : Переменный
Общий поток : 185 Кбит/сек
Альбом : Saxophobia (Sexy & Lounge)
Альбом/Исполнитель : Tito Beltran, City Of Prague Philharmonic & Stapleton
Трек : Caruso
Трек/Положение : 13
Исполнитель : Tito Beltran, City Of Prague Philharmonic & Stapleton
Жанр : Saxophone
Дата записи : 2009
Библиотека кодирования : LAME3.97
Обложка : Yes
Тип обложки : Cover (front)
MIME-тип обложки : image/jpg
Примечание : .:: Saxophobia ::.
Аудио
Формат : MPEG Audio
Версия формата : Version 1
Профиль формата : Layer 3
Режим : Joint stereo
Продолжительность : 4 м. 20 с.
Вид битрейта : Переменный
Битрейт : 185 Кбит/сек
Минимальный битрейт : 32,0 Кбит/сек
Каналы : 2 канала
Частота : 44,1 КГц
Метод сжатия : С потерями
Размер потока : 5,74 Мбайт (98%)
Библиотека кодирования : LAME3.97
Настройки программы : -m j -V 2 -q 3 -lowpass 18.6 --vbr-new -b 32
Общее
Полное имя : D:\Моя музыка\VA - Saxophobia - Sexy And Lounge (2009)\14. Romantic Saxophone Quintet - How Deep Is Your Love.mp3
Формат : MPEG Audio
Размер файла : 6,12 Мбайт
Продолжительность : 4 м. 29 с.
Режим общего битрейта : Переменный
Общий поток : 187 Кбит/сек
Альбом : Saxophobia (Sexy & Lounge)
Альбом/Исполнитель : Romantic Saxophone Quintet
Трек : How Deep Is Your Love
Трек/Положение : 14
Исполнитель : Romantic Saxophone Quintet
Жанр : Saxophone
Дата записи : 2009
Библиотека кодирования : LAME3.97
Обложка : Yes
Тип обложки : Cover (front)
MIME-тип обложки : image/jpg
Примечание : .:: Saxophobia ::.
Аудио
Формат : MPEG Audio
Версия формата : Version 1
Профиль формата : Layer 3
Режим : Joint stereo
Расширение режима : MS Stereo
Продолжительность : 4 м. 29 с.
Вид битрейта : Переменный
Битрейт : 187 Кбит/сек
Минимальный битрейт : 32,0 Кбит/сек
Каналы : 2 канала
Частота : 44,1 КГц
Метод сжатия : С потерями
Размер потока : 6,00 Мбайт (98%)
Библиотека кодирования : LAME3.97
Настройки программы : -m j -V 2 -q 3 -lowpass 18.6 --vbr-new -b 32
Общее
Полное имя : D:\Моя музыка\VA - Saxophobia - Sexy And Lounge (2009)\15. Jessy J - Pb 'n' J.mp3
Формат : MPEG Audio
Размер файла : 4,29 Мбайт
Продолжительность : 3 м. 4 с.
Режим общего битрейта : Переменный
Общий поток : 189 Кбит/сек
Альбом : Saxophobia (Sexy & Lounge)
Альбом/Исполнитель : Jessy J
Трек : Pb 'n' J
Трек/Положение : 15
Исполнитель : Jessy J
Жанр : Saxophone
Дата записи : 2009
Библиотека кодирования : LAME3.97
Обложка : Yes
Тип обложки : Cover (front)
MIME-тип обложки : image/jpg
Примечание : .:: Saxophobia ::.
Аудио
Формат : MPEG Audio
Версия формата : Version 1
Профиль формата : Layer 3
Режим : Joint stereo
Расширение режима : MS Stereo
Продолжительность : 3 м. 4 с.
Вид битрейта : Переменный
Битрейт : 189 Кбит/сек
Минимальный битрейт : 32,0 Кбит/сек
Каналы : 2 канала
Частота : 44,1 КГц
Метод сжатия : С потерями
Размер потока : 4,17 Мбайт (97%)
Библиотека кодирования : LAME3.97
Настройки программы : -m j -V 2 -q 3 -lowpass 18.6 --vbr-new -b 32
Время раздачи: с 6:00 до 22:00 (GMT +2)
Other forum [Profile] [PM]
Display posts from previous:    
Reply to topic

The time now is: Today 07:56

All times are GMT + 3 Hours



You cannot post new topics in this forum
You cannot reply to topics in this forum
You cannot edit your posts in this forum
You cannot delete your posts in this forum
You cannot vote in polls in this forum
You cannot attach files in this forum
You cannot download files in this forum