Today is a free download without charge Download

VA - Danish Delight: Jazz From Scandinavia (2012) [MP3|~208-260 кб/с (V0)]<Jazz>

Reply to topic
 
Author
Message

Omen ®

Longevity: 9 years 2 months

Posts: 181086

Торрент-статистика

Post 22-Jan-2013 19:09

[Quote]

-VA - Danish Delight: Jazz From Scandinavia (2012)- Год: 2012
Жанр: Jazz
Продолжительность: 01:08:47
Кодек: MP3
Битрейт: ~ 208-260 кб/с
Тип битрейта: VBR V0
Трек лист:
01. Jakob Bro - Nat [4:31]
02. Kira - I'll Be Seeing You [4:58]
03. Hans Urlik - The Beginning / All Things Shine [4:23]
04. Eliel Lazo - Un Gallego En La Habana [4:58]
05. Garzone, Tiberi, Ehlers, Westergard, Hoeyer - Solar [5:34]
06. Soeren Bebe Trio - Country Road [4:43]
07. Bobo Moreno, Bo Stief, Ole Kock Hansen - People Get Ready [3:37]
08. Henrik Gunde 3 - From Esbjoerns Point Of View [7:59]
09. Pasborgs Odessa XL - Black Dog [3:57]
10. Malene Mortesnsen Group - Your Love Is Digital [5:10]
11. Minkel Nordsoe Band - Rock The Buzz [6:25]
12. Offpiste Gurus - I Wanna Go Back [4:02]
13. Mark Solborg & Herb Robertson - Crepuscule In The Land Of Nod [8:29]

MI

Общее
Полное имя : F:\Documents and Settings\User\Рабочий стол\VA - Danish Delight - Jazz From Scandinavia (2012)\01-jakob_bro-nat.mp3
Формат : MPEG Audio
Размер файла : 6,80 Мбайт
Продолжительность : 4 м. 31 с.
Режим общего битрейта : Переменный
Общий поток : 208 Кбит/сек
Альбом : Danish Delight: Jazz From Scandinavia
Трек : Nat
Трек/Положение : 01
Трек/Всего : 13
Исполнитель : Jakob Bro
Жанр : Jazz
Дата записи : 2012-00-00
Библиотека кодирования : LAME3.98r
Обложка : Yes
Тип обложки : Cover (front)
MIME-тип обложки : image/jpeg
Rip date : 2012-10-23
Оригинал : CD
Ripping tool : EAC
Release type : Album
Аудио
Формат : MPEG Audio
Версия формата : Version 1
Профиль формата : Layer 3
Режим : Joint stereo
Расширение режима : MS Stereo
Продолжительность : 4 м. 31 с.
Вид битрейта : Переменный
Битрейт : 208 Кбит/сек
Минимальный битрейт : 32,0 Кбит/сек
Каналы : 2 канала
Частота : 44,1 КГц
Метод сжатия : С потерями
Размер потока : 6,74 Мбайт (99%)
Библиотека кодирования : LAME3.98r
Настройки программы : -m j -V 0 -q 0 -lowpass 19.5 --vbr-new -b 32
Язык : English
Общее
Полное имя : F:\Documents and Settings\User\Рабочий стол\VA - Danish Delight - Jazz From Scandinavia (2012)\02-kira-ill_be_seeing_you.mp3
Формат : MPEG Audio
Размер файла : 7,80 Мбайт
Продолжительность : 4 м. 58 с.
Режим общего битрейта : Переменный
Общий поток : 218 Кбит/сек
Альбом : Danish Delight: Jazz From Scandinavia
Трек : I'll Be Seeing You
Трек/Положение : 02
Трек/Всего : 13
Исполнитель : Kira
Жанр : Jazz
Дата записи : 2012-00-00
Библиотека кодирования : LAME3.98r
Обложка : Yes
Тип обложки : Cover (front)
MIME-тип обложки : image/jpeg
Rip date : 2012-10-23
Оригинал : CD
Ripping tool : EAC
Release type : Album
Аудио
Формат : MPEG Audio
Версия формата : Version 1
Профиль формата : Layer 3
Режим : Joint stereo
Расширение режима : MS Stereo
Продолжительность : 4 м. 58 с.
Вид битрейта : Переменный
Битрейт : 218 Кбит/сек
Минимальный битрейт : 32,0 Кбит/сек
Каналы : 2 канала
Частота : 44,1 КГц
Метод сжатия : С потерями
Размер потока : 7,74 Мбайт (99%)
Библиотека кодирования : LAME3.98r
Настройки программы : -m j -V 0 -q 0 -lowpass 19.5 --vbr-new -b 32
Язык : English
Общее
Полное имя : F:\Documents and Settings\User\Рабочий стол\VA - Danish Delight - Jazz From Scandinavia (2012)\03-hans_urlik-the_beginning_-_all_things_shine.mp3
Формат : MPEG Audio
Размер файла : 7,17 Мбайт
Продолжительность : 4 м. 23 с.
Режим общего битрейта : Переменный
Общий поток : 226 Кбит/сек
Альбом : Danish Delight: Jazz From Scandinavia
Трек : The Beginning / All Things Shine
Трек/Положение : 03
Трек/Всего : 13
Исполнитель : Hans Urlik
Жанр : Jazz
Дата записи : 2012-00-00
Библиотека кодирования : LAME3.98r
Обложка : Yes
Тип обложки : Cover (front)
MIME-тип обложки : image/jpeg
Rip date : 2012-10-23
Оригинал : CD
Ripping tool : EAC
Release type : Album
Аудио
Формат : MPEG Audio
Версия формата : Version 1
Профиль формата : Layer 3
Режим : Joint stereo
Продолжительность : 4 м. 23 с.
Вид битрейта : Переменный
Битрейт : 226 Кбит/сек
Минимальный битрейт : 32,0 Кбит/сек
Каналы : 2 канала
Частота : 44,1 КГц
Метод сжатия : С потерями
Размер потока : 7,11 Мбайт (99%)
Библиотека кодирования : LAME3.98r
Настройки программы : -m j -V 0 -q 0 -lowpass 19.5 --vbr-new -b 32
Язык : English
Общее
Полное имя : F:\Documents and Settings\User\Рабочий стол\VA - Danish Delight - Jazz From Scandinavia (2012)\04-eliel_lazo-un_gallego_en_la_habana.mp3
Формат : MPEG Audio
Размер файла : 9,29 Мбайт
Продолжительность : 4 м. 57 с.
Режим общего битрейта : Переменный
Общий поток : 260 Кбит/сек
Альбом : Danish Delight: Jazz From Scandinavia
Трек : Un Gallego En La Habana
Трек/Положение : 04
Трек/Всего : 13
Исполнитель : Eliel Lazo
Жанр : Jazz
Дата записи : 2012-00-00
Библиотека кодирования : LAME3.98r
Обложка : Yes
Тип обложки : Cover (front)
MIME-тип обложки : image/jpeg
Rip date : 2012-10-23
Оригинал : CD
Ripping tool : EAC
Release type : Album
Аудио
Формат : MPEG Audio
Версия формата : Version 1
Профиль формата : Layer 3
Режим : Joint stereo
Расширение режима : MS Stereo
Продолжительность : 4 м. 57 с.
Вид битрейта : Переменный
Битрейт : 260 Кбит/сек
Минимальный битрейт : 32,0 Кбит/сек
Каналы : 2 канала
Частота : 44,1 КГц
Метод сжатия : С потерями
Размер потока : 9,23 Мбайт (99%)
Библиотека кодирования : LAME3.98r
Настройки программы : -m j -V 0 -q 0 -lowpass 19.5 --vbr-new -b 32
Язык : English
Общее
Полное имя : F:\Documents and Settings\User\Рабочий стол\VA - Danish Delight - Jazz From Scandinavia (2012)\05-garzone-tiberi-ehlers-westergard-hoeyer-solar.mp3
Формат : MPEG Audio
Размер файла : 9,85 Мбайт
Продолжительность : 5 м. 34 с.
Режим общего битрейта : Переменный
Общий поток : 246 Кбит/сек
Альбом : Danish Delight: Jazz From Scandinavia
Трек : Solar
Трек/Положение : 05
Трек/Всего : 13
Исполнитель : Garzone/Tiberi/Ehlers/Westergard/Hoeyer
Жанр : Jazz
Дата записи : 2012-00-00
Библиотека кодирования : LAME3.98r
Обложка : Yes
Тип обложки : Cover (front)
MIME-тип обложки : image/jpeg
Rip date : 2012-10-23
Оригинал : CD
Ripping tool : EAC
Release type : Album
Аудио
Формат : MPEG Audio
Версия формата : Version 1
Профиль формата : Layer 3
Режим : Joint stereo
Продолжительность : 5 м. 34 с.
Вид битрейта : Переменный
Битрейт : 246 Кбит/сек
Минимальный битрейт : 32,0 Кбит/сек
Каналы : 2 канала
Частота : 44,1 КГц
Метод сжатия : С потерями
Размер потока : 9,79 Мбайт (99%)
Библиотека кодирования : LAME3.98r
Настройки программы : -m j -V 0 -q 0 -lowpass 19.5 --vbr-new -b 32
Язык : English
Общее
Полное имя : F:\Documents and Settings\User\Рабочий стол\VA - Danish Delight - Jazz From Scandinavia (2012)\06-soeren_bebe_trio-country_road.mp3
Формат : MPEG Audio
Размер файла : 7,64 Мбайт
Продолжительность : 4 м. 42 с.
Режим общего битрейта : Переменный
Общий поток : 225 Кбит/сек
Альбом : Danish Delight: Jazz From Scandinavia
Трек : Country Road
Трек/Положение : 06
Трек/Всего : 13
Исполнитель : Soeren Bebe Trio
Жанр : Jazz
Дата записи : 2012-00-00
Библиотека кодирования : LAME3.98r
Обложка : Yes
Тип обложки : Cover (front)
MIME-тип обложки : image/jpeg
Rip date : 2012-10-23
Оригинал : CD
Ripping tool : EAC
Release type : Album
Аудио
Формат : MPEG Audio
Версия формата : Version 1
Профиль формата : Layer 3
Режим : Joint stereo
Продолжительность : 4 м. 42 с.
Вид битрейта : Переменный
Битрейт : 225 Кбит/сек
Минимальный битрейт : 32,0 Кбит/сек
Каналы : 2 канала
Частота : 44,1 КГц
Метод сжатия : С потерями
Размер потока : 7,58 Мбайт (99%)
Библиотека кодирования : LAME3.98r
Настройки программы : -m j -V 0 -q 0 -lowpass 19.5 --vbr-new -b 32
Язык : English
Общее
Полное имя : F:\Documents and Settings\User\Рабочий стол\VA - Danish Delight - Jazz From Scandinavia (2012)\07-bobo_moreno-bo_stief-ole_kock_hansen-people_get_ready.mp3
Формат : MPEG Audio
Размер файла : 5,51 Мбайт
Продолжительность : 3 м. 36 с.
Режим общего битрейта : Переменный
Общий поток : 211 Кбит/сек
Альбом : Danish Delight: Jazz From Scandinavia
Трек : People Get Ready
Трек/Положение : 07
Трек/Всего : 13
Исполнитель : Bobo Moreno-Bo Stief-Ole Kock Hansen
Жанр : Jazz
Дата записи : 2012-00-00
Библиотека кодирования : LAME3.98r
Обложка : Yes
Тип обложки : Cover (front)
MIME-тип обложки : image/jpeg
Rip date : 2012-10-23
Оригинал : CD
Ripping tool : EAC
Release type : Album
Аудио
Формат : MPEG Audio
Версия формата : Version 1
Профиль формата : Layer 3
Режим : Joint stereo
Расширение режима : MS Stereo
Продолжительность : 3 м. 36 с.
Вид битрейта : Переменный
Битрейт : 211 Кбит/сек
Минимальный битрейт : 32,0 Кбит/сек
Каналы : 2 канала
Частота : 44,1 КГц
Метод сжатия : С потерями
Размер потока : 5,45 Мбайт (99%)
Библиотека кодирования : LAME3.98r
Настройки программы : -m j -V 0 -q 0 -lowpass 19.5 --vbr-new -b 32
Язык : English
Общее
Полное имя : F:\Documents and Settings\User\Рабочий стол\VA - Danish Delight - Jazz From Scandinavia (2012)\08-henrik_gunde_3-from_esbjoerns_point_of_view.mp3
Формат : MPEG Audio
Размер файла : 12,9 Мбайт
Продолжительность : 7 м. 59 с.
Режим общего битрейта : Переменный
Общий поток : 225 Кбит/сек
Альбом : Danish Delight: Jazz From Scandinavia
Трек : From Esbjoerns Point Of View
Трек/Положение : 08
Трек/Всего : 13
Исполнитель : Henrik Gunde 3
Жанр : Jazz
Дата записи : 2012-00-00
Библиотека кодирования : LAME3.98r
Обложка : Yes
Тип обложки : Cover (front)
MIME-тип обложки : image/jpeg
Rip date : 2012-10-23
Оригинал : CD
Ripping tool : EAC
Release type : Album
Аудио
Формат : MPEG Audio
Версия формата : Version 1
Профиль формата : Layer 3
Режим : Joint stereo
Продолжительность : 7 м. 59 с.
Вид битрейта : Переменный
Битрейт : 225 Кбит/сек
Минимальный битрейт : 32,0 Кбит/сек
Каналы : 2 канала
Частота : 44,1 КГц
Метод сжатия : С потерями
Размер потока : 12,9 Мбайт (100%)
Библиотека кодирования : LAME3.98r
Настройки программы : -m j -V 0 -q 0 -lowpass 19.5 --vbr-new -b 32
Язык : English
Общее
Полное имя : F:\Documents and Settings\User\Рабочий стол\VA - Danish Delight - Jazz From Scandinavia (2012)\09-pasborgs_odessa_xl-black_dog.mp3
Формат : MPEG Audio
Размер файла : 7,08 Мбайт
Продолжительность : 3 м. 56 с.
Режим общего битрейта : Переменный
Общий поток : 248 Кбит/сек
Альбом : Danish Delight: Jazz From Scandinavia
Трек : Black Dog
Трек/Положение : 09
Трек/Всего : 13
Исполнитель : Pasborgs Odessa XL
Жанр : Jazz
Дата записи : 2012-00-00
Библиотека кодирования : LAME3.98r
Обложка : Yes
Тип обложки : Cover (front)
MIME-тип обложки : image/jpeg
Rip date : 2012-10-23
Оригинал : CD
Ripping tool : EAC
Release type : Album
Аудио
Формат : MPEG Audio
Версия формата : Version 1
Профиль формата : Layer 3
Режим : Joint stereo
Продолжительность : 3 м. 56 с.
Вид битрейта : Переменный
Битрейт : 248 Кбит/сек
Минимальный битрейт : 32,0 Кбит/сек
Каналы : 2 канала
Частота : 44,1 КГц
Метод сжатия : С потерями
Размер потока : 7,01 Мбайт (99%)
Библиотека кодирования : LAME3.98r
Настройки программы : -m j -V 0 -q 0 -lowpass 19.5 --vbr-new -b 32
Язык : English
Общее
Полное имя : F:\Documents and Settings\User\Рабочий стол\VA - Danish Delight - Jazz From Scandinavia (2012)\10-malene_mortesnsen_group-your_love_is_digital.mp3
Формат : MPEG Audio
Размер файла : 8,71 Мбайт
Продолжительность : 5 м. 10 с.
Режим общего битрейта : Переменный
Общий поток : 234 Кбит/сек
Альбом : Danish Delight: Jazz From Scandinavia
Трек : Your Love Is Digital
Трек/Положение : 10
Трек/Всего : 13
Исполнитель : Malene Mortesnsen Group
Жанр : Jazz
Дата записи : 2012-00-00
Библиотека кодирования : LAME3.98r
Обложка : Yes
Тип обложки : Cover (front)
MIME-тип обложки : image/jpeg
Rip date : 2012-10-23
Оригинал : CD
Ripping tool : EAC
Release type : Album
Аудио
Формат : MPEG Audio
Версия формата : Version 1
Профиль формата : Layer 3
Режим : Joint stereo
Расширение режима : MS Stereo
Продолжительность : 5 м. 10 с.
Вид битрейта : Переменный
Битрейт : 234 Кбит/сек
Минимальный битрейт : 32,0 Кбит/сек
Каналы : 2 канала
Частота : 44,1 КГц
Метод сжатия : С потерями
Размер потока : 8,65 Мбайт (99%)
Библиотека кодирования : LAME3.98r
Настройки программы : -m j -V 0 -q 0 -lowpass 19.5 --vbr-new -b 32
Язык : English
Общее
Полное имя : F:\Documents and Settings\User\Рабочий стол\VA - Danish Delight - Jazz From Scandinavia (2012)\11-minkel_nordsoe_band-rock_the_buzz.mp3
Формат : MPEG Audio
Размер файла : 11,5 Мбайт
Продолжительность : 6 м. 25 с.
Режим общего битрейта : Переменный
Общий поток : 249 Кбит/сек
Альбом : Danish Delight: Jazz From Scandinavia
Трек : Rock The Buzz
Трек/Положение : 11
Трек/Всего : 13
Исполнитель : Minkel Nordsoe Band
Жанр : Jazz
Дата записи : 2012-00-00
Библиотека кодирования : LAME3.98r
Обложка : Yes
Тип обложки : Cover (front)
MIME-тип обложки : image/jpeg
Rip date : 2012-10-23
Оригинал : CD
Ripping tool : EAC
Release type : Album
Аудио
Формат : MPEG Audio
Версия формата : Version 1
Профиль формата : Layer 3
Режим : Joint stereo
Продолжительность : 6 м. 25 с.
Вид битрейта : Переменный
Битрейт : 249 Кбит/сек
Минимальный битрейт : 32,0 Кбит/сек
Каналы : 2 канала
Частота : 44,1 КГц
Метод сжатия : С потерями
Размер потока : 11,5 Мбайт (99%)
Библиотека кодирования : LAME3.98r
Настройки программы : -m j -V 0 -q 0 -lowpass 19.5 --vbr-new -b 32
Язык : English
Общее
Полное имя : F:\Documents and Settings\User\Рабочий стол\VA - Danish Delight - Jazz From Scandinavia (2012)\12-offpiste_gurus-i_wanna_go_back.mp3
Формат : MPEG Audio
Размер файла : 6,75 Мбайт
Продолжительность : 4 м. 1 с.
Режим общего битрейта : Переменный
Общий поток : 232 Кбит/сек
Альбом : Danish Delight: Jazz From Scandinavia
Трек : I Wanna Go Back
Трек/Положение : 12
Трек/Всего : 13
Исполнитель : Offpiste Gurus
Жанр : Jazz
Дата записи : 2012-00-00
Библиотека кодирования : LAME3.98r
Обложка : Yes
Тип обложки : Cover (front)
MIME-тип обложки : image/jpeg
Rip date : 2012-10-23
Оригинал : CD
Ripping tool : EAC
Release type : Album
Аудио
Формат : MPEG Audio
Версия формата : Version 1
Профиль формата : Layer 3
Режим : Joint stereo
Расширение режима : MS Stereo
Продолжительность : 4 м. 1 с.
Вид битрейта : Переменный
Битрейт : 232 Кбит/сек
Минимальный битрейт : 32,0 Кбит/сек
Каналы : 2 канала
Частота : 44,1 КГц
Метод сжатия : С потерями
Размер потока : 6,69 Мбайт (99%)
Библиотека кодирования : LAME3.98r
Настройки программы : -m j -V 0 -q 0 -lowpass 19.5 --vbr-new -b 32
Язык : English
Общее
Полное имя : F:\Documents and Settings\User\Рабочий стол\VA - Danish Delight - Jazz From Scandinavia (2012)\13-mark_solborg_and_herb_robertson-crepuscule_in_the_land_of_nod.mp3
Формат : MPEG Audio
Размер файла : 13,2 Мбайт
Продолжительность : 8 м. 28 с.
Режим общего битрейта : Переменный
Общий поток : 217 Кбит/сек
Альбом : Danish Delight: Jazz From Scandinavia
Трек : Crepuscule In The Land Of Nod
Трек/Положение : 13
Трек/Всего : 13
Исполнитель : Mark Solborg & Herb Robertson
Жанр : Jazz
Дата записи : 2012-00-00
Библиотека кодирования : LAME3.98r
Обложка : Yes
Тип обложки : Cover (front)
MIME-тип обложки : image/jpeg
Rip date : 2012-10-23
Оригинал : CD
Ripping tool : EAC
Release type : Album
Аудио
Формат : MPEG Audio
Версия формата : Version 1
Профиль формата : Layer 3
Режим : Joint stereo
Продолжительность : 8 м. 28 с.
Вид битрейта : Переменный
Битрейт : 217 Кбит/сек
Минимальный битрейт : 32,0 Кбит/сек
Каналы : 2 канала
Частота : 44,1 КГц
Метод сжатия : С потерями
Размер потока : 13,1 Мбайт (100%)
Библиотека кодирования : LAME3.98r
Настройки программы : -m j -V 0 -q 0 -lowpass 19.5 --vbr-new -b 32
Язык : English
Общее
Полное имя : F:\Documents and Settings\User\Рабочий стол\VA - Danish Delight - Jazz From Scandinavia (2012)\cover.jpg
Формат : JPEG
Размер файла : 59,6 Кбайт
Изображения
Формат : JPEG
Ширина : 450 пикселей
Высота : 450 пикселей
Цветовое пространство : YUV
Субдискретизация насыщенности : 4:2:0
Битовая глубина : 8 бит
Метод сжатия : С потерями
Размер потока : 59,6 Кбайт (100%)
Общее
Полное имя : F:\Documents and Settings\User\Рабочий стол\VA - Danish Delight - Jazz From Scandinavia (2012)\disc.jpg
Формат : JPEG
Размер файла : 559 Кбайт
Изображения
Формат : JPEG
Ширина : 4648 пикселей
Высота : 3264 пикселя
Цветовое пространство : YUV
Субдискретизация насыщенности : 4:2:0
Битовая глубина : 8 бит
Метод сжатия : С потерями
Размер потока : 559 Кбайт (100%)
-Время раздачи: 24/7-круглосуточно
Other forum [Profile] [PM]
Display posts from previous:    
Reply to topic

The time now is: Today 18:03

All times are GMT + 3 Hours



You cannot post new topics in this forum
You cannot reply to topics in this forum
You cannot edit your posts in this forum
You cannot delete your posts in this forum
You cannot vote in polls in this forum
You cannot attach files in this forum
You cannot download files in this forum