Today is a free download without charge Download

Вампиро / Vampiro (Хорхе Рамирез Ривера / Jorge Ramirez Rivera) [2009, США, Ужасы, DVDRip] MVO [Лицензия]

Reply to topic
 
Author
Message

nsa1977 ®

Gender:

Longevity: 8 years 11 months

Posts: 1473

Location: Пенза

Торрент-статистика

Post 05-May-2011 13:01

[Quote]

Вампиро / Vampiro
-Страна: США
Жанр: Ужасы
Год выпуска: 2009
Продолжительность: 01:18:37
Перевод: Профессиональный (многоголосый закадровый) [Лицензия]
Cубтитры: нет-Режиссер: Хорхе Рамирез Ривера / Jorge Ramirez Rivera-В ролях: Калила Гриффит, Дэмиан Чапа, Лесли Гарза Ривера, Роберт Рекс, Рэй Чавез Джейар, Вероника Родригез, Эстефания Иглесиас, Кимберли Санчез-Описание: Восточный Лос-Анжелес по ночам наводнен вампирами. Бланку, молодую мексиканку преследует женщина-вампир по имени Сексикана. Бланка встречает получеловека-полувампира Казанову Владимиреса, который влюбляется в нее и становится ее защитником. Казанове тоже грозит опасность — вампиры хотят его уничтожить, так как у него есть возможность продолжения рода, а это может привести к исчезновению вампиров. Бланка помогает Казанове, не подозревая, что у него от нее есть секрет…- -Качество видео: DVDRip
Формат видео: AVI
Видео: 720x400 (16:9), 25.000 fps, Xvid ~2093 Kbps avg, 0.291 bit/pixel
Аудио: 48 kHz, AC3 Dolby Digital, 3/2 (L,C,R,l,r) + LFE ch, ~384.00 kbps avg-

MediaInfo

General
Complete name : Vampiro.2009.XviD.DVDRip.ELEKTRO.Am.avi
Format : AVI
Format/Info : Audio Video Interleave
File size : 1.36 GiB
Duration : 1h 18mn
Overall bit rate : 2 487 Kbps
Movie name : Vampiro
Director : ELEKTRO-Am
Writing application : VirtualDubMod 1.5.10.2 (build 2540/release)
Video
ID : 0
Format : MPEG-4 Visual
Format profile : Advanced [email protected]
Format settings, BVOP : Yes
Format settings, QPel : No
Format settings, GMC : No warppoints
Format settings, Matrix : Custom
Codec ID : XVID
Codec ID/Hint : XviD
Duration : 1h 18mn
Bit rate : 2 094 Kbps
Width : 720 pixels
Height : 400 pixels
Display aspect ratio : 16:9
Frame rate : 25.000 fps
Color space : YUV
Chroma subsampling : 4:2:0
Bit depth : 8 bits
Scan type : Progressive
Compression mode : Lossy
Bits/(Pixel*Frame) : 0.291
Stream size : 1.15 GiB (84%)
Writing library : XviD 1.2.0.dev47 (UTC 2006-11-01)
Audio
ID : 1
Format : AC-3
Format/Info : Audio Coding 3
Mode extension : CM (complete main)
Codec ID : 2000
Duration : 1h 18mn
Bit rate mode : Constant
Bit rate : 384 Kbps
Channel(s) : 6 channels
Channel positions : Front: L C R, Side: L R, LFE
Sampling rate : 48.0 KHz
Bit depth : 16 bits
Compression mode : Lossy
Stream size : 216 MiB (15%)
Alignment : Split accross interleaves
Interleave, duration : 40 ms (1.00 video frame)
Interleave, preload duration : 500 ms
    

_________________


Last edited by nsa1977 on 2011-05-06 13:11; edited 4 times in total
Other forum [Profile] [PM]
Display posts from previous:    
Reply to topic

The time now is: Today 09:52

All times are GMT + 3 Hours



You cannot post new topics in this forum
You cannot reply to topics in this forum
You cannot edit your posts in this forum
You cannot delete your posts in this forum
You cannot vote in polls in this forum
You cannot attach files in this forum
You cannot download files in this forum