Today is a free download without charge Download

Николай Носков - Без названия (2012) [MP3|320 кб/с]<Pop, Rock>

Reply to topic
 
Author
Message

Omen ®

Longevity: 8 years 7 months

Posts: 181087

Торрент-статистика

Post 22-Jan-2013 19:05

[Quote]

-Николай Носков - Без названия (2012)- Год: 2012
Жанр: Pop, Rock
Продолжительность: 00:31:00
Кодек: MP3
Битрейт: 320 kbps
Тип битрейта: CBR-Трек лист:
1. Без названия (4:08)
2. Озёра (5:09)
3. Ночь (4:40)
4. Я был один (4:06)
5. Исповедь (4:24)
6. Мёд (4:15)
7. Мёд (4:18) (Video)

MediaInfo&#58;

Код:
Общее
Полное имя                       : C:\Николай Носков - Без названия (2012)\Николай Носков - Мёд.mp4
Формат                           : MPEG-4
Профиль формата                  : Base Media / Version 2
Идентификатор кодека             : mp42
Размер файла                     : 86,8 Мбайт
Продолжительность                : 4 м. 18 с.
Режим общего битрейта            : Переменный
Общий поток                      : 2816 Кбит/сек
Дата кодирования                 : UTC 2012-11-05 07:25:22
Дата пометки                     : UTC 2012-11-05 07:25:22
gsst                             : 0
gstd                             : 258738
gssd                             : BD0419A44MH1354907212665667
gshh                             : r15---sn-25g7sb7d.c.youtube.com
Видео
Идентификатор                    : 1
Формат                           : AVC
Формат/Информация                : Advanced Video Codec
Профиль формата                  : [url=mailto:[email protected]][email protected][/url]
Параметр CABAC формата           : Да
Параметр ReFrames формата        : 1 кадр
Идентификатор кодека             : avc1
Идентификатор кодека/Информация  : Advanced Video Coding
Продолжительность                : 4 м. 18 с.
Битрейт                          : 2621 Кбит/сек
Максимальный битрейт             : 6558 Кбит/сек
Ширина                           : 1280 пикселей
Высота                           : 720 пикселей
Соотношение сторон               : 16:9
Режим частоты кадров             : Постоянный
Частота кадров                   : 25,000 кадров/сек
Цветовое пространство            : YUV
Субдискретизация насыщенности    : 4:2:0
Битовая глубина                  : 8 бит
Тип развёртки                    : Прогрессивная
Бит/(Пиксели*Кадры)              : 0.114
Размер потока                    : 80,8 Мбайт (93%)
Дата пометки                     : UTC 2012-11-05 07:25:22
Аудио
Идентификатор                    : 2
Формат                           : AAC
Формат/Информация                : Advanced Audio Codec
Профиль формата                  : LC
Идентификатор кодека             : 40
Продолжительность                : 4 м. 18 с.
Вид битрейта                     : Переменный
Битрейт                          : 192 Кбит/сек
Максимальный битрейт             : 203 Кбит/сек
Каналы                           : 2 канала
Расположение каналов             : Front: L R
Частота                          : 44,1 КГц
Метод сжатия                     : С потерями
Размер потока                    : 5,92 Мбайт (7%)
Заголовок                        : IsoMedia File Produced by Google, 5-11-2011
Дата кодирования                 : UTC 2012-11-05 07:25:22
Дата пометки                     : UTC 2012-11-05 07:25:22
Скриншоты:
       
Other forum [Profile] [PM]
Display posts from previous:    
Reply to topic

The time now is: Today 16:42

All times are GMT + 3 Hours



You cannot post new topics in this forum
You cannot reply to topics in this forum
You cannot edit your posts in this forum
You cannot delete your posts in this forum
You cannot vote in polls in this forum
You cannot attach files in this forum
You cannot download files in this forum