Today is a free download without charge Download

12 стульев (1971) [H.264] DVDRip

Reply to topic
 
Author
Message

Omen ®

Longevity: 6 years 5 months

Posts: 171875

Торрент-статистика

Post 22-Jan-2013 14:08

[Quote]

-12 стульев (1971) DVDRip- Русское название: 12 стульев
Год выпуска: 1971
Жанр: Комедия, Приключения
Продолжительность: 02:32:35
Описание фильма:
Во время революции и последовавшего за ней краткого периода военного коммунизма многие прятали свои ценности как можно надежнее. И вот Ипполит Матвеевич Воробьянинов, бывший Старгородский предводитель дворянства и светский лев, а ныне — скромный делопроизводитель ЗАГСа, узнает от умирающей тещи, что некогда она спрятала свои бриллианты и жемчуга в общей сложности на 150 000 золотых рублей под обивку одного из двенадцати стульев гостиного гарнитура работы известного мастера Гамбса.
Бросив все, Воробьянинов бросается на поиски стульев.
Режиссер: Леонид Гайдай
Актеры:
Арчил Гомиашвили, Сергей Филиппов, Михаил Пуговкин, Гликерия Богданова-Чеснокова, Наталья Варлей, Наталья Воробьева, Нина Гребешкова, Наталья Крачковская, Клара Румянова, Георгий Вицин, Николай Горлов, Юрий Никулин, Виктор Павлов, Готлиб Ронинсон, Роман Филиппов, Григорий Шпигель, Владимир Этуш, Игорь Ясулович, Нина Агапова, Рина Зеленая, Ирина Мурзаева, Евдокия Урусова, Руслан Ахметов, Эдуард Бредун, Павел Винник, Эраст Гарин, Ш. Геджадзе, Георгий Георгиу, Алик Денисов, В. Дорофеев, Иван Жеваго, Виктор Колпаков, Юрий Медведев, Раднэр Муратов, Н. Пажитнов, В. Ферапонтов, Александр Хвыля, Савелий Крамаров, Ростислав Плятт, Леонид Гайдай.

Видеокодек: MPEG-4 AVC/H.264
Битрейт видео: ~2000 Kbps
Размер кадра: 720x544
Качество видео: DVDRip
Аудиокодек: AC3 2.0
Битрейт аудио: 256 Kbps

Media Info

General
Unique ID : 208751198804708671704437087227850426389 (0x9D0C04BA7B19C713A9829330D4428815)
Complete name : 12 стульев ©1971.mkv
Format : Matroska
Format version : Version 4 / Version 2
File size : 2.41 GiB
Duration : 2h 32mn
Overall bit rate : 2 261 Kbps
Movie name : 12 стульев ©1971 (rip by smithland)
Encoded date : UTC 2013-01-22 09:18:27
Writing application : mkvmerge v6.0.0 ('Coming Up For Air') built on Jan 20 2013 09:52:00
Writing library : libebml v1.3.0 + libmatroska v1.4.0
Attachment : Yes
Video
ID : 1
Format : AVC
Format/Info : Advanced Video Codec
Format profile : [url=mailto:[email protected]][email protected][/url]
Format settings, CABAC : Yes
Format settings, ReFrames : 10 frames
Codec ID : V_MPEG4/ISO/AVC
Duration : 2h 32mn
Bit rate : 2 000 Kbps
Width : 720 pixels
Height : 544 pixels
Display aspect ratio : 4:3
Frame rate mode : Constant
Frame rate : 25.000 fps
Color space : YUV
Chroma subsampling : 4:2:0
Bit depth : 8 bits
Scan type : Progressive
Bits/(Pixel*Frame) : 0.204
Stream size : 2.09 GiB (87%)
Writing library : x264 core 129 r2230
Encoding settings : cabac=1 / ref=10 / deblock=1:-2:0 / analyse=0x3:0x133 / me=esa / subme=11 / psy=1 / psy_rd=1.50:0.70 / mixed_ref=0 / me_range=32 / chroma_me=1 / trellis=2 / 8x8dct=1 / cqm=0 / deadzone=21,11 / fast_pskip=1 / chroma_qp_offset=-4 / threads=12 / lookahead_threads=2 / sliced_threads=0 / nr=1 / decimate=1 / interlaced=0 / bluray_compat=0 / constrained_intra=0 / bframes=6 / b_pyramid=2 / b_adapt=1 / b_bias=0 / direct=3 / weightb=1 / open_gop=1 / weightp=2 / keyint=250 / keyint_min=25 / scenecut=80 / intra_refresh=0 / rc_lookahead=40 / rc=abr / mbtree=1 / bitrate=2000 / ratetol=1.0 / qcomp=0.60 / qpmin=10 / qpmax=69 / qpstep=4 / vbv_maxrate=24000 / vbv_bufsize=24000 / nal_hrd=none / ip_ratio=1.40 / aq=1:1.00
Language : Russian
Default : Yes
Forced : Yes
Audio
ID : 2
Format : AC-3
Format/Info : Audio Coding 3
Mode extension : CM (complete main)
Format settings, Endianness : Big
Codec ID : A_AC3
Duration : 2h 32mn
Bit rate mode : Constant
Bit rate : 256 Kbps
Channel(s) : 2 channels
Channel positions : Front: L R
Sampling rate : 48.0 KHz
Bit depth : 16 bits
Compression mode : Lossy
Delay relative to video : -5ms
Stream size : 279 MiB (11%)
Language : Russian
Default : Yes
Forced : Yes
Скриншоты:
         
         
Other forum [Profile] [PM]
Display posts from previous:    
Reply to topic

The time now is: Today 05:53

All times are GMT + 3 Hours



You cannot post new topics in this forum
You cannot reply to topics in this forum
You cannot edit your posts in this forum
You cannot delete your posts in this forum
You cannot vote in polls in this forum
You cannot attach files in this forum
You cannot download files in this forum