Today is a free download without charge Download

Все началось в Харбине [1-2 серия из 8] (2013) SATRip [Обновляемая]

Reply to topic
 
Author
Message

Omen ®

Longevity: 8 years 11 months

Posts: 181086

Торрент-статистика

Post 22-Jan-2013 02:16

[Quote]

-Все началось в Харбине - Русское название: Все началось в Харбине
Выпущено: Россия
Год выпуска: 2013
Жанр: Мелодрама
Перевод: Не требуется (Русский)
Режиссер: Александр Буравский, Леонид Зисман
Актеры: Данила Козловский, Анна Чиповская, Владимир Епифанцев, Дина Корзун, Игорь Иванов, Филипп Ершов, Никита Ефремов, Ирина Розанова, Игорь Скляр, Эрнст Романов, Юлия Денисова
Описание фильма:
События сценария телевизионного фильма «Все началось в Харбине...» разворачиваются сначала на территории Китая, в Маньчжурии, затем переносятся в СССР, имеют обширный географический ореол: от Харбина до Ленинграда, и охватывают период времени с 1928 по 1953-й годы. В основе сюжета: сложная, полная драматических событий судьба человека — Бориса, сына сотрудника Китайско-Восточной железной дороги. 1928 год, Харбин. Борис и его младший брат Володя ведут беззаботную жизнь обычных подростков. Но их семью в результате политически неверного поступка отца записывают в неблагонадежные советскому режиму. Отец вынужден уйти с дороги, жить становится тяжело. Между Борисом и дочерью начальника станции - Людой Ержановой - начинается роман. Но Люда вскоре сбегает из Харбина с другим - бывшим белогвардейским офицером. При попытке бегства Люду арестовывает ОГПУ, офицера – убивают. В 1932 году власть в Харбине от советского режима переходит к японским оккупантам. Борису становится ясно: надо ехать в СССР. Здесь жить нормально не дадут. После передачи КВЖД новым владельцам, все КВЖДинцы вынуждены вернуться на родину.
Продолжительность: 2 х ~ 00:43:26 серия
Качество видео: SATRip
Видеокодек: Xvid
Битрейт видео: ~1452 Kbit/s
Размер кадра: 720 x 400
Аудиокодек: MP3, 2.0
Битрейт аудио: 192 Kbit/s
Внимание! Раздача ведётся путём добавления новых серий

Внимание! Раздача ведётся путём добавления новых серий. Описание обновления торрента.

Внимание! Раздача ведётся путём добавления новых серий; при каждом добавлении создётся новый торрент. Чтобы начать докачку новой серии, пользователям необходимо сделать следующее:
(1) остановить скачивание,
(2) удалить старый торрент у себя из клиента (старые серии удалять не надо),
(3) скачать новый торрент и запустить его у себя в клиенте вместо старого, при этом указать клиенту путь в старую папку куда и должно происходить скачивание новых серий.
Ваш клиент при этом должен произвести хеширование (проверку) старой папки (если не производит сам - помогите ему сделать это), и будет докачивать только те серии которых у вас ещё нет. Старые серии при этом не удаляются, а продолжают раздаваться!
Eсли вы уже удалили старые серии, то предотвратить повторную закачку старых серий можно, отжав галочку в соответсвующих местах при запуске нового торрента. По возможности, желательно не удалять старые серии как можно дольше чтобы релизёр не столько продолжал раздавать старые серии, а смог сконцентрироваться на новых.

MediaInfo

Общее
Полное имя : D:\Торренты\Все началось в Харбине. 2013. SATRip\Все началось в Харбине.(1.serij.iz.8).2013.SATRip.avi
Формат : AVI
Формат/Информация : Audio Video Interleave
Размер файла : 500 Мбайт
Продолжительность : 42 м.
Общий поток : 1654 Кбит/сек
Программа кодирования : VirtualDubMod 1.5.10.2 (build 2540/release)
Библиотека кодирования : VirtualDubMod build 2540/release
Видео
Идентификатор : 0
Формат : MPEG-4 Visual
Профиль формата : [email protected]
Параметр BVOP формата : Нет
Параметр QPel формата : Нет
Параметр GMC формата : Без точки перехода
Параметр матрицы формата : Default (H.263)
Идентификатор кодека : XVID
Идентификатор кодека/Подсказка : XviD
Продолжительность : 42 м.
Битрейт : 1452 Кбит/сек
Ширина : 720 пикс.
Высота : 400 пикс.
Соотношение сторон : 16:9
Частота кадров : 25,000 кадр/сек
Цветовое пространство : YUV
Подвыборка цветности : 4:2:0
Битовая глубина : 8 бит
Тип развёртки : Прогрессивная
Метод сжатия : С потерями
Бит/(Пиксели*Кадры) : 0.202
Размер потока : 439 Мбайт (88%)
Библиотека кодирования : XviD 1.1.2 (UTC 2006-11-01)
Аудио
Идентификатор : 1
Формат : MPEG Audio
Версия формата : Version 1
Профиль формата : Layer 3
Режим : Joint stereo
Расширение режима : MS Stereo
Идентификатор кодека : 55
Идентификатор кодека/Подсказка : MP3
Продолжительность : 42 м.
Вид битрейта : Постоянный
Битрейт : 192 Кбит/сек
Каналы : 2 канала
Частота : 48,0 КГц
Метод сжатия : С потерями
Размер потока : 58,1 Мбайт (12%)
Выравнивание : Разделение по промежуткам
Продолжительность промежутка : 40 мс. (1,00 видеокадр)
Время предзагрузки промежутка : 500 ms
Библиотека кодирования : LAME3.98
Скриншоты:
           
Время раздачи: 24/7 по возможности
Other forum [Profile] [PM]
Display posts from previous:    
Reply to topic

The time now is: Today 09:35

All times are GMT + 3 Hours



You cannot post new topics in this forum
You cannot reply to topics in this forum
You cannot edit your posts in this forum
You cannot delete your posts in this forum
You cannot vote in polls in this forum
You cannot attach files in this forum
You cannot download files in this forum