Today is a free download without charge Download

Pokemon Kyurem VS. The Sword of Justice / Покемон Кюрем против Мечника Справедливости [2012, Movie] HDTVRip 720р ENG+RUSх2

Reply to topic
 
Author
Message

Omen ®

Longevity: 9 years 2 months

Posts: 181086

Торрент-статистика

Post 21-Jan-2013 17:04

[Quote]

-Pokemon Kyurem VS. The Sword of Justice
Покемон Кюрем против Мечника Справедливости
- Жанр: кодомо, комедия, фэнтези
Тип: Фильм
Продолжительность: 01:06:40
Производство/студия: Oriental Light and Magic
Режиссер: Норихико Судо
Качество: HDTVRip
Формат: MKV
Видео: x264, 1280*720, 3733 kbps, 23.976 fps
Аудио #1: AC3, 448 kbps, 48.0 KHz, 5.1 ch
Аудио #2: MP3, 192 kbps, 48.0 KHz, 2 ch [sim_emrom]
Аудио #3: AAC, 192 kbps, 48.0 KHz, 2 ch [Marvel]
Субтитры: Русские, ass, встроенные
Релиз группа: Pokemon-Alliance
Энкод: Pokemon_Poster
Тайминг: drfsupercenter
Перевод и оформление: Shaman-aka-King
Редакция: sim_emrom
Озвучка #1: sim_emrom
Озвучка #2: Marvel
Семпл
Описание:
Это - история о покемоне Келдео, который хочет стать Мечником Справедливости, как и его учителя.
Это - история об узах дружбы, что в конечном счете оказываются сильнее всего, что есть в этом мире.
Это - история о становлении и совершенствовании личности, пусть сия личность и является покемоном.
Это - история о важнейшем этапе жизни мечника Келдео!

Подробные тех. данные:

General
Format : Matroska
Format version : Version 2
File size : 2.17 GiB
Duration : 1h 6mn
Overall bit rate : 4 651 Kbps
Encoded date : UTC 2013-01-21 07:14:37
Writing application : mkvmerge v5.8.0 ('No Sleep / Pillow') built on Sep 2 2012 15:37:04
Writing library : libebml v1.2.3 + libmatroska v1.3.0
Video
ID : 1
Format : AVC
Format/Info : Advanced Video Codec
Format profile : [url=mailto:[email protected]][email protected][/url]
Format settings, CABAC : Yes
Format settings, ReFrames : 9 frames
Muxing mode : Header stripping
Codec ID : V_MPEG4/ISO/AVC
Duration : 1h 6mn
Width : 1 280 pixels
Height : 720 pixels
Display aspect ratio : 16:9
Frame rate mode : Constant
Frame rate : 23.976 fps
Color space : YUV
Chroma subsampling : 4:2:0
Bit depth : 8 bits
Scan type : Progressive
Title : 720p / 23.976 FPS / x264
Writing library : x264 core 125 r2200 999b753
Encoding settings : cabac=1 / ref=9 / deblock=1:1:1 / analyse=0x3:0x113 / me=umh / subme=8 / psy=1 / psy_rd=0.40:0.00 / mixed_ref=1 / me_range=16 / chroma_me=1 / trellis=1 / 8x8dct=1 / cqm=0 / deadzone=21,11 / fast_pskip=1 / chroma_qp_offset=-2 / threads=6 / lookahead_threads=1 / sliced_threads=0 / nr=0 / decimate=1 / interlaced=0 / bluray_compat=0 / constrained_intra=0 / bframes=5 / b_pyramid=0 / b_adapt=2 / b_bias=0 / direct=3 / weightb=1 / open_gop=0 / weightp=2 / keyint=240 / keyint_min=23 / scenecut=40 / intra_refresh=0 / rc_lookahead=50 / rc=crf / mbtree=1 / crf=15.5 / qcomp=0.60 / qpmin=12 / qpmax=25 / qpstep=4 / ip_ratio=1.40 / aq=1:0.60
Language : English
Default : Yes
Forced : No
Audio #1
ID : 2
Format : AC-3
Format/Info : Audio Coding 3
Mode extension : CM (complete main)
Format settings, Endianness : Big
Muxing mode : Header stripping
Codec ID : A_AC3
Duration : 1h 6mn
Bit rate mode : Constant
Bit rate : 448 Kbps
Channel(s) : 6 channels
Channel positions : Front: L C R, Side: L R, LFE
Sampling rate : 48.0 KHz
Bit depth : 16 bits
Compression mode : Lossy
Stream size : 214 MiB (10%)
Title : Dolby Digital 5.1 AC3 (448 Kbps)
Language : English
Default : Yes
Forced : Yes
Audio #2
ID : 3
Format : MPEG Audio
Format version : Version 1
Format profile : Layer 3
Muxing mode : Header stripping
Codec ID : A_MPEG/L3
Codec ID/Hint : MP3
Duration : 1h 6mn
Bit rate mode : Constant
Bit rate : 192 Kbps
Channel(s) : 2 channels
Sampling rate : 48.0 KHz
Compression mode : Lossy
Stream size : 91.6 MiB (4%)
Title : sim_emrom
Language : Russian
Default : No
Forced : No
Audio #3
ID : 4
Format : AAC
Format/Info : Advanced Audio Codec
Format profile : LC
Codec ID : A_AAC
Duration : 1h 6mn
Channel(s) : 2 channels
Channel positions : Front: L R
Sampling rate : 48.0 KHz
Compression mode : Lossy
Title : Marvel
Language : Russian
Default : No
Forced : No
Text
ID : 5
Format : ASS
Codec ID : S_TEXT/ASS
Codec ID/Info : Advanced Sub Station Alpha
Compression mode : Lossless
Title : Shaman-aka-King & sim_emrom
Language : Russian
Default : Yes
Forced : Yes
-              -Приятного просмотра
и не забываем говорить Спасибо-Время раздачи: В свободное время
Other forum [Profile] [PM]
Display posts from previous:    
Reply to topic

The time now is: Today 22:41

All times are GMT + 3 Hours



You cannot post new topics in this forum
You cannot reply to topics in this forum
You cannot edit your posts in this forum
You cannot delete your posts in this forum
You cannot vote in polls in this forum
You cannot attach files in this forum
You cannot download files in this forum