Today is a free download without charge Download

Восьмидесятые-2 (1-2 серия из ?) (2013) SATRip [Обновляемая]

Reply to topic
 
Author
Message

Omen ®

Longevity: 8 years 11 months

Posts: 181086

Торрент-статистика

Post 21-Jan-2013 15:28

[Quote]

-Восьмидесятые-2 (1-2 серия из ?) (2013) SATRip [Обновляемая]- Русское название: Восьмидесятые
Выпущено: Россия, Леан-М
Год выпуска: 2013
Жанр: Комедия
Перевод: Не требуется (Русский)
Режиссер: Федор Стуков
Актеры: Александр Якин, Наталья Земцова, Александр Половцев, Мария Аронова, Леонид Громов, Дмитрий Белоцерковский, Юлия Сулес, Александр Новицкий, Роман Фомин, Ирина Чипиженко, Александр Мальков, Никита Ефремов, Анастасия Балякина, Артур Ваха, Юрий Королев, Николай Надежкин, Дмитрий Шевченко, Зоя Давыдова, Олег Балашов, Анна Цуканова-Котт, Наталья Карпунина, Игорь Лагутин, Роман Маякин, Елена Лебедева, Виктория Левкина, Олег Смирнов, Олег Комаров, Эдуард Чемодаков, Игорь Бондаренко, Илья Соболев, Дмитрий Собачкин, Максим Ратинер, Алексей Паничев, Екатерина Коновалова, Руслан Спояло, Сергей Климков
Описание фильма:
Сериал «Восьмидесятые» - это история про один из самых интересных периодов в жизни нашей страны. Мы как-то обходились без интернета и мобильного телефона. А чтобы передать ключ от квартиры, просто оставляли его под ковриком. Это было странное время, когда нельзя было ничего купить, но достать можно было все. В каждой квартире обязательно стояли югославский гарнитур и шведская стенка, а лучшим подарком были французские духи и электрическая бритва.

Продолжительность: 2 х ~ 00:23:57 серия
Качество видео: SATRip
Релиз от:
Видеокодек: Xvid
Битрейт видео: ~1639 Kbit/s
Размер кадра: 704 x 400
Аудиокодек: MP3, 2.0
Битрейт аудио: 128 Kbit/s
Внимание! Раздача ведётся путём добавления новых серий

Внимание! Раздача ведётся путём добавления новых серий. Описание обновления торрента.

Внимание! Раздача ведётся путём добавления новых серий; при каждом добавлении создётся новый торрент. Чтобы начать докачку новой серии, пользователям необходимо сделать следующее:
(1) остановить скачивание,
(2) удалить старый торрент у себя из клиента (старые серии удалять не надо),
(3) скачать новый торрент и запустить его у себя в клиенте вместо старого, при этом указать клиенту путь в старую папку куда и должно происходить скачивание новых серий.
Ваш клиент при этом должен произвести хеширование (проверку) старой папки (если не производит сам - помогите ему сделать это), и будет докачивать только те серии которых у вас ещё нет. Старые серии при этом не удаляются, а продолжают раздаваться!
Eсли вы уже удалили старые серии, то предотвратить повторную закачку старых серий можно, отжав галочку в соответсвующих местах при запуске нового торрента. По возможности, желательно не удалять старые серии как можно дольше чтобы релизёр не столько продолжал раздавать старые серии, а смог сконцентрироваться на новых.

MediaInfo

Общее
Полное имя : D:\Торренты\Восьмидесятые-2. 2013. SATRip\Восьмидесятые-2.01.avi
Формат : AVI
Формат/Информация : Audio Video Interleave
Размер файла : 304 Мбайт
Продолжительность : 23 м.
Общий поток : 1776 Кбит/сек
Библиотека кодирования : VirtualDub build 34807/release
Видео
Идентификатор : 0
Формат : MPEG-4 Visual
Профиль формата : Advanced [email protected]
Параметр BVOP формата : 2
Параметр QPel формата : Нет
Параметр GMC формата : Без точки перехода
Параметр матрицы формата : Default (H.263)
Режим смешивания : Сжатый битовый поток
Идентификатор кодека : XVID
Идентификатор кодека/Подсказка : XviD
Продолжительность : 23 м.
Битрейт : 1639 Кбит/сек
Ширина : 704 пикс.
Высота : 400 пикс.
Соотношение сторон : 16:9
Частота кадров : 25,000 кадр/сек
Цветовое пространство : YUV
Подвыборка цветности : 4:2:0
Битовая глубина : 8 бит
Тип развёртки : Прогрессивная
Метод сжатия : С потерями
Бит/(Пиксели*Кадры) : 0.233
Размер потока : 281 Мбайт (92%)
Библиотека кодирования : XviD 64
Аудио
Идентификатор : 1
Формат : MPEG Audio
Версия формата : Version 1
Профиль формата : Layer 3
Режим : Joint stereo
Идентификатор кодека : 55
Идентификатор кодека/Подсказка : MP3
Продолжительность : 23 м.
Вид битрейта : Постоянный
Битрейт : 128 Кбит/сек
Каналы : 2 канала
Частота : 48,0 КГц
Метод сжатия : С потерями
Размер потока : 21,9 Мбайт (7%)
Выравнивание : Разделение по промежуткам
Продолжительность промежутка : 40 мс. (1,00 видеокадр)
Время предзагрузки промежутка : 500 ms
Скриншоты:
           
Other forum [Profile] [PM]
Display posts from previous:    
Reply to topic

The time now is: Today 12:33

All times are GMT + 3 Hours



You cannot post new topics in this forum
You cannot reply to topics in this forum
You cannot edit your posts in this forum
You cannot delete your posts in this forum
You cannot vote in polls in this forum
You cannot attach files in this forum
You cannot download files in this forum