Today is a free download without charge Download

Перевозчик 2 / Transporter 2 (Луи Летерье / Louis Leterrier) [2005, Франция, США, боевик, триллер, криминал, BDRip 1080p] [UnCut] Dub + MVO (Киномания) + DVO (П.Гланц и И.Королева) + AVO (Гаврилов) + Original + subs (Rus, Eng)

Reply to topic
 
Author
Message

Omen ®

Longevity: 8 years 5 months

Posts: 181087

Торрент-статистика

Post 21-Jan-2013 13:04

[Quote]

Перевозчик 2 / Transporter 2 [Uncut]- Год выпуска: 2005
Страна: Франция, США
Жанр: боевик, триллер, криминал
Продолжительность: 01:28:07
Перевод 1: Профессиональный (полное дублирование)
Перевод 1: Профессиональный (многоголосый, закадровый) Киномания
Перевод 1: Профессиональный (двухголосый, закадровый) П.Гланц и И.Королева
Перевод 2: Авторский одноголосый А.Гаврилов
Оригинальная звуковая дорожка: English
Cубтитры: Russian, English-Режиссер: Луи Летерье / Louis Leterrier
В ролях: Джейсон Стэтхэм, Алессандро Гассман, Эмбер Валлетта, Кейт Наута, Мэтью Модайн, Джейсон Флеминг, Кейт Дэвид, Хантер Клэри, Шеннон Бриггс, Франсуа Берлеан, Рэймонд Тонг, George Kapetan, Джефф Чейз, Грегг Уэйнер, Грегг Дэвис, Марти Райт, AnnaLynne McCord, Регги Пьер, Эли Томпсон, Адам Фалдетта, Майкл Хаус
Описание: Бывший сотрудник спецподразделения Фрэнк Мартин, известный также как Перевозчик, уходит от дел и поселяется в Майами, где устраивается шофером в богатую семью. С маленьким сыном этого семейства у него завязываются дружеские отношения.Когда же мальчика похищают, Мартину приходится использовать свои профессиональные навыки, чтобы вернуть парнишку в целости и сохранности, а также раскрыть зловещий план похитителя-Релиз: by Skazhutin
Формат: MKV
Видео: 1916x816 at 24.000 fps, [email protected], crf, ~19995 kbps
Аудио #1: Russian: 48 kHz, DTS 5.1, ~768 kbps |Дубляж, BD CEE|
Аудио #2: Russian: 48 kHz, AC3, 5.1 ch, ~384 kbps |Многоголосый закадровый, Киномания|
Аудио #3: Russian: 48 kHz, DTS 5.1, ~1536 kbps |Двухголосый закадровый, Гланц и Королева|
Аудио #4: Russian: 48 kHz, DTS 5.1, ~768 kbps |Одноголосый закадровый, Гаврилов|
Аудио #5: English: 48 kHz, DTS 5.1, ~1536 kbps
Семпл-

-

MInfo


Формат : Matroska
Версия формата : Version 4 / Version 2
Размер файла : 15,3 Гбайт
Продолжительность : 1 ч. 28 м.
Общий поток : 24,9 Мбит/сек
Название фильма : Transporter 2 (2005) - Release for HDCLUB by Skazhutin
Дата кодирования : UTC 2010-02-22 21:41:31
Программа кодирования : mkvmerge v5.9.0 ('On The Loose') built on Dec 9 2012 15:37:01
Библиотека кодирования : libebml v1.3.0 + libmatroska v1.4.0
Attachment : Yes / Yes
Видео
Идентификатор : 1
Формат : AVC
Формат/Информация : Advanced Video Codec
Профиль формата : [email protected]
Параметр CABAC формата : Да
Параметр ReFrames формата : 5 кадров
Режим смешивания : Container [email protected]
Идентификатор кодека : V_MPEG4/ISO/AVC
Продолжительность : 1 ч. 28 м.
Битрейт : 19,5 Мбит/сек
Ширина : 1916 пикселей
Высота : 816 пикселей
Соотношение сторон : 2,35:1
Режим частоты кадров : Постоянный
Частота кадров : 24,000 кадра/сек
Цветовое пространство : YUV
Субдискретизация насыщенности : 4:2:0
Битовая глубина : 8 бит
Тип развёртки : Прогрессивная
Бит/(Пиксели*Кадры) : 0.519
Размер потока : 12,0 Гбайт (78%)
Заголовок : Release for HDCLUB
Библиотека кодирования : x264 core 129 r2245kMod bc13772
Настройки программы : cabac=1 / ref=5 / deblock=1:-3:-3 / analyse=0x3:0x113 / me=tesa / subme=11 / psy=1 / fade_compensate=0.00 / psy_rd=0.90:0.00 / mixed_ref=1 / me_range=23 / chroma_me=1 / trellis=2 / 8x8dct=1 / cqm=0 / deadzone=21,11 / fast_pskip=1 / chroma_qp_offset=-2 / threads=12 / lookahead_threads=2 / sliced_threads=0 / nr=0 / decimate=1 / interlaced=0 / bluray_compat=0 / constrained_intra=0 / bframes=8 / b_pyramid=2 / b_adapt=2 / b_bias=0 / direct=3 / weightb=1 / open_gop=0 / weightp=2 / keyint=250 / keyint_min=23 / scenecut=40 / intra_refresh=0 / rc_lookahead=100 / rc=crf / mbtree=1 / crf=18.5000 / qcomp=0.80 / qpmin=0 / qpmax=69 / qpstep=4 / vbv_maxrate=50000 / vbv_bufsize=62500 / crf_max=0.0 / nal_hrd=none / ip_ratio=1.10 / aq=1:0.65
Язык : English
Default : Нет
Forced : Нет
Коэффициенты матрицы : BT.709
Аудио #1
Идентификатор : 2
Формат : DTS
Формат/Информация : Digital Theater Systems
Режим : 16
Параметр Endianness формата : Big
Идентификатор кодека : A_DTS
Продолжительность : 1 ч. 28 м.
Вид битрейта : Постоянный
Битрейт : 755 Кбит/сек
Каналы : 6 каналов
Расположение каналов : Front: L C R, Side: L R, LFE
Частота : 48,0 КГц
Битовая глубина : 24 бит
Метод сжатия : С потерями
Задержка видео : 7 мс.
Размер потока : 476 Мбайт (3%)
Заголовок : DTS 5.1 @ 768 kbps - Dub
Язык : Russian
Default : Да
Forced : Нет
Аудио #2
Идентификатор : 3
Формат : DTS
Формат/Информация : Digital Theater Systems
Режим : 16
Параметр Endianness формата : Big
Идентификатор кодека : A_DTS
Продолжительность : 1 ч. 28 м.
Вид битрейта : Постоянный
Битрейт : 1510 Кбит/сек
Каналы : 6 каналов
Расположение каналов : Front: L C R, Side: L R, LFE
Частота : 48,0 КГц
Битовая глубина : 24 бит
Метод сжатия : С потерями
Задержка видео : 7 мс.
Размер потока : 952 Мбайт (6%)
Заголовок : DTS 5.1 @ 1536 kbps - DVO, Glanz & Koroleva
Язык : Russian
Default : Нет
Forced : Нет
Аудио #3
Идентификатор : 4
Формат : AC-3
Формат/Информация : Audio Coding 3
Расширение режима : CM (complete main)
Параметр Endianness формата : Big
Идентификатор кодека : A_AC3
Продолжительность : 1 ч. 28 м.
Вид битрейта : Постоянный
Битрейт : 384 Кбит/сек
Каналы : 6 каналов
Расположение каналов : Front: L C R, Side: L R, LFE
Частота : 48,0 КГц
Битовая глубина : 16 бит
Метод сжатия : С потерями
Задержка видео : 17 мс.
Размер потока : 242 Мбайт (2%)
Заголовок : AC3 5.1 @ 384 kbps - MVO, Kinomania
Язык : Russian
Default : Нет
Forced : Нет
Аудио #4
Идентификатор : 5
Формат : DTS
Формат/Информация : Digital Theater Systems
Режим : 16
Параметр Endianness формата : Big
Идентификатор кодека : A_DTS
Продолжительность : 1 ч. 28 м.
Вид битрейта : Постоянный
Битрейт : 755 Кбит/сек
Каналы : 6 каналов
Расположение каналов : Front: L C R, Side: L R, LFE
Частота : 48,0 КГц
Битовая глубина : 24 бит
Метод сжатия : С потерями
Задержка видео : 7 мс.
Размер потока : 476 Мбайт (3%)
Заголовок : DTS 5.1 @ 768 kbps - VO, Gavrilov
Язык : Russian
Default : Нет
Forced : Нет
Аудио #5
Идентификатор : 6
Формат : DTS
Формат/Информация : Digital Theater Systems
Режим : 16
Параметр Endianness формата : Big
Идентификатор кодека : A_DTS
Продолжительность : 1 ч. 28 м.
Вид битрейта : Постоянный
Битрейт : 1509 Кбит/сек
Каналы : 6 каналов
Расположение каналов : Front: L C R, Side: L R, LFE
Частота : 48,0 КГц
Битовая глубина : 24 бит
Метод сжатия : С потерями
Задержка видео : 7 мс.
Размер потока : 951 Мбайт (6%)
Заголовок : DTS 5.1 @ 1536 kbps
Язык : English
Default : Нет
Forced : Нет
Текст #1
Идентификатор : 7
Формат : UTF-8
Идентификатор кодека : S_TEXT/UTF8
Идентификатор кодека/Информация : UTF-8 Plain Text
Язык : Russian
Default : Нет
Forced : Нет
Текст #2
Идентификатор : 8
Формат : UTF-8
Идентификатор кодека : S_TEXT/UTF8
Идентификатор кодека/Информация : UTF-8 Plain Text
Язык : English
Default : Нет
Forced : Нет
Меню
00:00:00.000 : en:00:00:00.000
00:04:09.792 : en:00:04:09.792
00:13:11.000 : en:00:13:11.000
00:15:13.375 : en:00:15:13.375
00:24:02.792 : en:00:24:02.792
00:33:59.375 : en:00:33:59.375
00:43:57.375 : en:00:43:57.375
00:53:47.375 : en:00:53:47.375
01:00:19.000 : en:01:00:19.000
01:04:21.000 : en:01:04:21.000
01:12:01.375 : en:01:12:01.375
01:18:57.375 : en:01:18:57.375

-
Цитата:

*** За дороги спасибо HANSMER
*** Рип с японского исходника 32946 kbps, спасибо kukushka
Other forum [Profile] [PM]
Similar theme
Forum Topic Author Torrent Replies Last Post
./templates/default/images/folder_dl.gif PlayStation 2 | Игры [PS2] Grand Theft Auto: San Andreas [RUS|NTSC](перевод SanLTD) Omen
0 | 1

0 | 826

0

2013-08-28 21:07
Omen Latest
./templates/default/images/folder_dl.gif PlayStation 2 | Игры [PS2] Grand Theft Auto: San Andreas (GTA SA) [RUS|NTSC](перевод Enpy Studio/Fix) Omen
0 | 1

0 | 1965

0

2015-02-28 18:00
Omen Latest
Display posts from previous:    
Reply to topic

The time now is: Today 22:13

All times are GMT + 3 Hours



You cannot post new topics in this forum
You cannot reply to topics in this forum
You cannot edit your posts in this forum
You cannot delete your posts in this forum
You cannot vote in polls in this forum
You cannot attach files in this forum
You cannot download files in this forum