Today is a free download without charge Download

Подземелье драконов 3: Книга заклинаний / Dungeons & Dragons: The Book of Vile Darkness (Джерри Лайвли / Gerry Lively) [2012, Великобритания, фэнтези, приключения, BDRip 720p] MVO + Original Eng

Reply to topic
 
Author
Message

Omen ®

Longevity: 8 years 5 months

Posts: 181087

Торрент-статистика

Post 21-Jan-2013 13:04

[Quote]

Подземелье драконов 3: Книга заклинанийDungeons & Dragons: The Book of Vile Darkness
Страна: Великобритания
Жанр: Фэнтези, приключения
Год выпуска: 2012
Продолжительность: 01:29:54.912
Перевод: Профессиональный многоголосый закадровый
Cубтитры: Нет
Навигация по главам: Есть, сохранены оригинальные чаптеры как на Blu-ray
Режиссер: Джерри Лайвли / Gerry Lively
В ролях: Мэган Гуд, Элеанор Гекс, Джеймс Роулингс, Энтони Хауэлл, Бо Брассо, Яна Титова, Доминик Мафэм, Алексис Дэниэл, Хабиб Назиб Нэйдер, Аарон Сэкстон, Остин Нолти, Ллойд Питтс, Йонас Токингтон, Бэрри Аирд, Калойан Воденичаров, Харди Гэтлин, Адам Сибли, Джон С. Клейн, Райан Х. Джексон, Майкл Патрик Роджерс
Описание: 2000 лет назад могучий колдун Нагрул, вселявший в людские сердца страх и отчаяние, перед лицом смерти продал свою душу Демону, чтобы его полный ненависти дух выжил, когда его тело умрет. В мучительном ритуале, верные слуги сделали из кожи мага страницы, из раздробленных костей сделали обложку, а его мертвой кровью написали Книгу Заклинаний. Любой прочитавший ее, либо терял разум, либо, ослепленный темными знаниями, вставал на сторону Зла. Стремительно растущая армия тьмы покоряла все новые и новые территории, следуя наставлениям своего хозяина, сея хаос и разрушения.
Тип релиза: BDRip 720p
Контейнер: MKV
Видео: MPEG-4 AVC, 5435 Кбит/с, 1280x720 (1.778), 23.976 fps, 16:9, [email protected]
Аудио 1: Russian: 48 kHz, AC3, 6 ch, 448.00 kbps avg, 16 bits |MVO|
Аудио 2: English: 48 kHz, DTS, 6 ch, 1510 kbps avg, 16 bits

MediaInfo

General
Unique ID : 310995907710775844902517315416275340985 (0xE9F7A2146D946D16028AF377B0C4CEB9)
Complete name : Dungeons.&.Dragons.3. BDRip.720.AVC.[Release_by_Doktor_S.]
Format : Matroska
Format version : Version 2
File size : 4.65 GiB
Duration : 1h 30mn
Overall bit rate : 7 389 Kbps
Movie name : Dungeons.&.Dragons.3. BDRip.720.AVC.[Release_by_Doktor_S.]
Encoded date : UTC 2013-01-14 18:42:55
Writing application : mkvmerge v5.8.0 ('No Sleep / Pillow') built on Oct 10 2012 22:05:47
Writing library : libebml v1.2.3 + libmatroska v1.3.0
Video
ID : 1
Format : AVC
Format/Info : Advanced Video Codec
Format profile : [email protected]
Format settings, CABAC : Yes
Format settings, ReFrames : 5 frames
Codec ID : V_MPEG4/ISO/AVC
Duration : 1h 30mn
Bit rate : 5 435 Kbps
Width : 1 280 pixels
Height : 720 pixels
Display aspect ratio : 16:9
Frame rate : 23.976 fps
Color space : YUV
Chroma subsampling : 4:2:0
Bit depth : 8 bits
Scan type : Progressive
Bits/(Pixel*Frame) : 0.246
Stream size : 3.32 GiB (72%)
Title : Dungeons.&.Dragons.3. BDRip.720.AVC.[Release_by_Doktor_S.]
Writing library : x264 core 129 r2230 1cffe9f
Encoding settings : cabac=1 / ref=5 / deblock=1:0:0 / analyse=0x3:0x133 / me=umh / subme=7 / psy=1 / psy_rd=1.00:0.00 / mixed_ref=1 / me_range=16 / chroma_me=1 / trellis=1 / 8x8dct=1 / cqm=0 / deadzone=21,11 / fast_pskip=0 / chroma_qp_offset=-2 / threads=24 / lookahead_threads=4 / sliced_threads=0 / nr=0 / decimate=1 / interlaced=0 / bluray_compat=0 / constrained_intra=0 / bframes=3 / b_pyramid=2 / b_adapt=1 / b_bias=0 / direct=1 / weightb=1 / open_gop=0 / weightp=2 / keyint=250 / keyint_min=23 / scenecut=40 / intra_refresh=0 / rc=2pass / mbtree=0 / bitrate=5435 / ratetol=1.0 / qcomp=0.60 / qpmin=0 / qpmax=69 / qpstep=4 / cplxblur=20.0 / qblur=0.5 / ip_ratio=1.40 / pb_ratio=1.30 / aq=1:1.00
Language : English
Default : Yes
Forced : No
Audio #1
ID : 2
Format : AC-3
Format/Info : Audio Coding 3
Mode extension : CM (complete main)
Codec ID : A_AC3
Duration : 1h 30mn
Bit rate mode : Constant
Bit rate : 448 Kbps
Channel(s) : 6 channels
Channel positions : Front: L C R, Side: L R, LFE
Sampling rate : 48.0 KHz
Bit depth : 16 bits
Compression mode : Lossy
Stream size : 288 MiB (6%)
Title : Rus_MVO_448kbps
Language : Russian
Default : Yes
Forced : No
Audio #2
ID : 3
Format : DTS
Format/Info : Digital Theater Systems
Codec ID : A_DTS
Duration : 1h 30mn
Bit rate mode : Constant
Bit rate : 1 510 Kbps
Channel(s) : 6 channels
Channel positions : Front: L C R, Side: L R, LFE
Sampling rate : 48.0 KHz
Bit depth : 16 bits
Compression mode : Lossy
Stream size : 972 MiB (20%)
Title : Eng_DTS_1510kbps
Language : English
Default : No
Forced : No
Menu
00:00:00.000 : en:00:00:00.000
00:10:03.228 : en:00:10:03.228
00:20:03.619 : en:00:20:03.619
00:30:02.592 : en:00:30:02.592
00:40:03.568 : en:00:40:03.568
00:50:03.918 : en:00:50:03.918
01:00:04.518 : en:01:00:04.518
01:10:07.161 : en:01:10:07.161
01:20:11.223 : en:01:20:11.223

Скриншоты

Other forum [Profile] [PM]
Display posts from previous:    
Reply to topic

The time now is: Today 06:12

All times are GMT + 3 Hours



You cannot post new topics in this forum
You cannot reply to topics in this forum
You cannot edit your posts in this forum
You cannot delete your posts in this forum
You cannot vote in polls in this forum
You cannot attach files in this forum
You cannot download files in this forum