Today is a free download without charge Download

Женщина французского лейтенанта / The French Lieutenant's Woman (Карел Рейш / Karel Reisz) [1981, Великобритания, Драма, BDRip 720p] Dub + DVO + VO + Sub Rus, Eng + Original Eng

Reply to topic
 
Author
Message

Omen ®

Longevity: 8 years 11 months

Posts: 181086

Торрент-статистика

Post 21-Jan-2013 13:04

[Quote]

Женщина французского лейтенанта / The French Lieutenant's Woman
Страна: Великобритания
Жанр: Драма
Год выпуска: 1981
Продолжительность: 01:58:45-Перевод 1: Профессиональный (дублированный)
Перевод 2: Профессиональный (двухголосый закадровый)
Перевод 3: Одноголосый закадровый
Cубтитры: русские, английские
Оригинальная аудиодорожка: английский-Режиссер: Карел Рейш / Karel Reisz-В ролях: Мэрил Стрип, Джереми Айронс, Хилтон МакРэй, Эмили Морган, Шарлотт Митчелл, Линси Бакстер, Жан Фолдс, Питер Воэн и др.-Описание: Фильм основан на романе известного писателя Джона Фаулза. Эта история произошла в 19 веке в Англии. Чарльз Смитсон, богатый и молодой биолог, помолвлен с девушкой. Сара Вудрафф — падшая женщина, отвергнутая всеми. Человек из высшего света и женщина, изгнанная из него. Что может сблизить этих людей? Только внезапно вспыхнувшая страсть… Но Сара бросает Чарльза.
Параллельно с этим развивается другая история. Анна и Майк, молодые актеры, играющие Сару и Чарльза, настолько вживаются в свои роли, что не замечают, как персонажи начинают изменять их собственные судьбы.-Доп. информация: http:///*spam*//forum/viewtopic.php?t=2819182-Сэмпл: Скачать-Тип релиза: BDRip 720p
Контейнер: MKV-Видео: 1280x694 (1.85:1); 9935 Kbps; 25.000 fps; 0.447 bpp
Аудио 1: Russian; AC3; 48.0 KHz; 2ch; 192 Kbps Dub
Аудио 2: Russian; AC3; 48.0 KHz; 2ch; 192 Kbps MVO
Аудио 3: Russian; AC3; 48.0 KHz; 2ch; 192 Kbps VO
Аудио 4: English; FLAC; 48.0 KHz; 2ch; ~331 Kbps
Формат субтитров: softsub (SRT)

MediaInfo

Format : Matroska
Format version : Version 2
File size : 8.98 GiB
Duration : 1h 58mn
Overall bit rate mode : Variable
Overall bit rate : 10.8 Mbps
Encoded date : UTC 2012-12-16 19:22:49
Writing application : mkvmerge v5.0.1 ('Es ist Sommer') built on Oct 9 2011 11:55:43
Writing library : libebml v1.2.2 + libmatroska v1.3.0
Video
ID : 1
Format : AVC
Format/Info : Advanced Video Codec
Format profile : [email protected]
Format settings, CABAC : Yes
Format settings, ReFrames : 9 frames
Codec ID : V_MPEG4/ISO/AVC
Duration : 1h 58mn
Nominal bit rate : 9 935 Kbps
Width : 1 280 pixels
Height : 694 pixels
Display aspect ratio : 1.85:1
Frame rate mode : Constant
Frame rate : 25.000 fps
Color space : YUV
Chroma subsampling : 4:2:0
Bit depth : 8 bits
Scan type : Progressive
Bits/(Pixel*Frame) : 0.447
Title : The.French.Lieutenant's.Woman.1981.720p.BluRay.FLAC.2.0.X264-DON
Writing library : x264 core 125 r2200 999b753
Encoding settings : cabac=1 / ref=9 / deblock=1:-3:-3 / analyse=0x3:0x133 / me=umh / subme=10 / psy=1 / psy_rd=1.00:0.05 / mixed_ref=1 / me_range=32 / chroma_me=1 / trellis=2 / 8x8dct=1 / cqm=0 / deadzone=21,11 / fast_pskip=0 / chroma_qp_offset=-3 / threads=3 / lookahead_threads=1 / sliced_threads=0 / nr=0 / decimate=0 / interlaced=0 / bluray_compat=0 / constrained_intra=0 / bframes=7 / b_pyramid=2 / b_adapt=2 / b_bias=0 / direct=3 / weightb=1 / open_gop=0 / weightp=2 / keyint=250 / keyint_min=25 / scenecut=40 / intra_refresh=0 / rc=2pass / mbtree=0 / bitrate=9935 / ratetol=1.0 / qcomp=0.65 / qpmin=0 / qpmax=69 / qpstep=4 / cplxblur=20.0 / qblur=0.5 / ip_ratio=1.40 / pb_ratio=1.15 / aq=1:0.75
Language : English
Default : Yes
Forced : No
Audio #1
ID : 2
Format : AC-3
Format/Info : Audio Coding 3
Mode extension : CM (complete main)
Format settings, Endianness : Big
Codec ID : A_AC3
Duration : 1h 58mn
Bit rate mode : Constant
Bit rate : 192 Kbps
Channel(s) : 2 channels
Channel positions : Front: L R
Sampling rate : 48.0 KHz
Bit depth : 16 bits
Compression mode : Lossy
Stream size : 163 MiB (2%)
Title : Dub
Language : Russian
Default : Yes
Forced : No
Audio #2
ID : 3
Format : AC-3
Format/Info : Audio Coding 3
Mode extension : CM (complete main)
Format settings, Endianness : Big
Codec ID : A_AC3
Duration : 1h 58mn
Bit rate mode : Constant
Bit rate : 192 Kbps
Channel(s) : 2 channels
Channel positions : Front: L R
Sampling rate : 48.0 KHz
Bit depth : 16 bits
Compression mode : Lossy
Stream size : 163 MiB (2%)
Title : MVO
Language : Russian
Default : No
Forced : No
Audio #3
ID : 4
Format : AC-3
Format/Info : Audio Coding 3
Mode extension : CM (complete main)
Format settings, Endianness : Big
Codec ID : A_AC3
Duration : 1h 58mn
Bit rate mode : Constant
Bit rate : 192 Kbps
Channel(s) : 2 channels
Channel positions : Front: L R
Sampling rate : 48.0 KHz
Bit depth : 16 bits
Compression mode : Lossy
Stream size : 163 MiB (2%)
Title : AVO
Language : Russian
Default : No
Forced : No
Audio #4
ID : 5
Format : FLAC
Format/Info : Free Lossless Audio Codec
Codec ID : A_FLAC
Duration : 1h 58mn
Bit rate mode : Variable
Channel(s) : 2 channels
Sampling rate : 48.0 KHz
Bit depth : 16 bits
Writing library : libFLAC 1.2.1 (UTC 2007-09-17)
Language : English
Default : No
Forced : No
Text #1
ID : 6
Format : UTF-8
Codec ID : S_TEXT/UTF8
Codec ID/Info : UTF-8 Plain Text
Language : Russian
Default : No
Forced : No
Text #2
ID : 7
Format : UTF-8
Codec ID : S_TEXT/UTF8
Codec ID/Info : UTF-8 Plain Text
Language : English
Default : No
Forced : No
Menu
00:00:00.000 : :00:00:00.000
00:10:10.360 : :00:10:10.360
00:19:07.960 : :00:19:07.960
00:26:48.520 : :00:26:48.520
00:35:27.560 : :00:35:27.560
00:46:18.880 : :00:46:18.880
00:54:30.400 : :00:54:30.400
01:05:44.400 : :01:05:44.400
01:15:24.320 : :01:15:24.320
01:24:24.560 : :01:24:24.560
01:34:43.800 : :01:34:43.800
01:46:53.040 : :01:46:53.040

Скриншоты

Other forum [Profile] [PM]
Similar theme
Forum Topic Author Torrent Replies Last Post
./templates/default/images/folder_dl.gif Зарубежные фильмы с переводом Замужняя Женщина. Зов Страсти (русский перевод) / Married Woman: The Call Of Lust / 43 Ans Les Nuits D'une Femme Mariee (Gazzman / Marc Dorcel) [2015 г., Feature, Anal Sex, DP, DVDRip] (Rebecca More, Alexa Tomas, Honey Demon, Aida Sweet)[RUS] Anonymous
1 | 0

0 | 5510

44

2017-01-14 01:12
Anonymous Latest
Display posts from previous:    
Reply to topic

The time now is: Today 11:54

All times are GMT + 3 Hours



You cannot post new topics in this forum
You cannot reply to topics in this forum
You cannot edit your posts in this forum
You cannot delete your posts in this forum
You cannot vote in polls in this forum
You cannot attach files in this forum
You cannot download files in this forum