Today is a free download without charge Download

Подстава / SetUp (Майк Гюнтер / Mike Gunther) [2011 г., США, боевик, драма, криминал, BDRip 1080p] Dub + VO (Zamez) + Original (eng) + Subs (rus, eng)

Reply to topic
 
Author
Message

Omen ®

Longevity: 8 years 5 months

Posts: 181087

Торрент-статистика

Post 21-Jan-2013 13:04

[Quote]

Подстава / SetUp Страна: США
Жанр: боевик, драма, криминал
Год выпуска: 2011
Продолжительность: 01:24:54-Перевод #1: Профессиональный (дублированный) R5
Перевод #2: Одноголосый закадровый В. Замез
Cубтитры: Russian (R5, ПроходимеZ (С матами), Notabenoid), English
Оригинальная аудиодорожка: English-Режиссер: Майк Гюнтер / Mike Gunther
В ролях: Фифти Сент, Райан Филипп, Брюс Уиллис, Рори Маркхам, Дженна Деван, Бретт Гранстафф, Рэнди Кутюр, Сьюзи Абромейт, Джеймс Римар, Уилл Юн Ли-Описание: Лучшие друзья Сони, Винсент и Дейв вместе выросли на бандитских улицах и зарабатывают на жизнь разбоем. Устав от такой жизни, они решают покончить с преступлениями, когда завершат последнее криминальное дело. Однако один из них решил прекратить преступный путь двоих других в полном смысле слова. После удачного, но кровавого похищения алмазов Винсент стреляет в своих товарищей и бросает их умирать. Дейв погибает на месте, а Сони чудом остается в живых. Теперь у него одна цель - отомстить предателю.- -Качество: BDRip 1080p
Контейнер: MKV
Видео: H.264, 1920x800, 23,976 fps, 11.9 Mbps
Аудио #1: Russian: AC3 5.1, 48 kHz, 448 kbps avg |Дубляж, R5|
Аудио #2: Russian: DTS 5.1, 48 kHz, 1536 kbps avg |Одноголосый закадровый, В. Замез|
Аудио #3: English: DTS 5.1, 48 kHz, 1536 kbps avg
Аудио #4: English: AC3 2.0, 48 kHz, 224 kbps avg |Commentary|
Формат субтитров: softsub (SRT)

MediaInfo

General
Unique ID : 238279896271681947670386849964371433505 (0xB34309EAB399C4CC9BAA0C65B6535821)
Complete name : E:\Setup.2011.BDRip.1080p.mkv
Format : Matroska
File size : 9.25 GiB
Duration : 1h 24mn
Overall bit rate : 15.6 Mbps
Movie name : Подстава
Encoded date : UTC 2013-01-13 16:04:54
Writing application : mkvmerge v5.1.0 ('And so it goes') built on Nov 28 2011 23:58:28
Writing library : libebml v1.2.3 + libmatroska v1.3.0
Video
ID : 1
Format : AVC
Format/Info : Advanced Video Codec
Format profile : [email protected]
Format settings, CABAC : Yes
Format settings, ReFrames : 5 frames
Format settings, GOP : M=1, N=43
Codec ID : V_MPEG4/ISO/AVC
Duration : 1h 24mn
Bit rate : 11.9 Mbps
Width : 1 920 pixels
Height : 800 pixels
Display aspect ratio : 2.40:1
Frame rate : 23.976 fps
Color space : YUV
Chroma subsampling : 4:2:0
Bit depth : 8 bits
Scan type : Progressive
Bits/(Pixel*Frame) : 0.323
Stream size : 6.87 GiB (74%)
Title : Подстава
Writing library : x264 core 116 r2057 0ba8a9c
Encoding settings : cabac=1 / ref=5 / deblock=1:-3:-3 / analyse=0x3:0x113 / me=umh / subme=9 / psy=1 / psy_rd=1.00:0.00 / mixed_ref=1 / me_range=32 / chroma_me=1 / trellis=2 / 8x8dct=1 / cqm=0 / deadzone=21,11 / fast_pskip=0 / chroma_qp_offset=-4 / threads=9 / sliced_threads=0 / nr=0 / decimate=0 / interlaced=0 / bluray_compat=0 / constrained_intra=0 / bframes=5 / b_pyramid=2 / b_adapt=2 / b_bias=0 / direct=3 / weightb=1 / open_gop=0 / weightp=2 / keyint=250 / keyint_min=23 / scenecut=40 / intra_refresh=0 / rc_lookahead=50 / rc=2pass / mbtree=1 / bitrate=11898 / ratetol=1.0 / qcomp=0.60 / qpmin=0 / qpmax=69 / qpstep=4 / cplxblur=20.0 / qblur=0.5 / vbv_maxrate=40000 / vbv_bufsize=40000 / nal_hrd=none / ip_ratio=1.40 / aq=2:0.80
Language : English
Audio #1
ID : 2
Format : AC-3
Format/Info : Audio Coding 3
Mode extension : CM (complete main)
Codec ID : A_AC3
Duration : 1h 24mn
Bit rate mode : Constant
Bit rate : 448 Kbps
Channel(s) : 6 channels
Channel positions : Front: L C R, Side: L R, LFE
Sampling rate : 48.0 KHz
Bit depth : 16 bits
Compression mode : Lossy
Stream size : 272 MiB (3%)
Title : AC3 - Дубляж
Language : Russian
Audio #2
ID : 3
Format : DTS
Format/Info : Digital Theater Systems
Codec ID : A_DTS
Duration : 1h 24mn
Bit rate mode : Constant
Bit rate : 1 510 Kbps
Channel(s) : 6 channels
Channel positions : Front: L C R, Side: L R, LFE
Sampling rate : 48.0 KHz
Bit depth : 24 bits
Compression mode : Lossy
Stream size : 917 MiB (10%)
Title : DTS - VO (Zamez)
Language : Russian
Audio #3
ID : 4
Format : DTS
Format/Info : Digital Theater Systems
Codec ID : A_DTS
Duration : 1h 24mn
Bit rate mode : Constant
Bit rate : 1 510 Kbps
Channel(s) : 6 channels
Channel positions : Front: L C R, Side: L R, LFE
Sampling rate : 48.0 KHz
Bit depth : 24 bits
Compression mode : Lossy
Stream size : 917 MiB (10%)
Title : DTS
Language : English
Audio #4
ID : 5
Format : AC-3
Format/Info : Audio Coding 3
Mode extension : CM (complete main)
Codec ID : A_AC3
Duration : 1h 24mn
Bit rate mode : Constant
Bit rate : 224 Kbps
Channel(s) : 2 channels
Channel positions : Front: L R
Sampling rate : 48.0 KHz
Bit depth : 16 bits
Compression mode : Lossy
Stream size : 136 MiB (1%)
Title : AC3 - Commentary
Language : English
Text #1
ID : 6
Format : UTF-8
Codec ID : S_TEXT/UTF8
Codec ID/Info : UTF-8 Plain Text
Title : R5
Language : Russian
Text #2
ID : 7
Format : UTF-8
Codec ID : S_TEXT/UTF8
Codec ID/Info : UTF-8 Plain Text
Title : ПроходимеZ (С матами)
Language : Russian
Text #3
ID : 8
Format : UTF-8
Codec ID : S_TEXT/UTF8
Codec ID/Info : UTF-8 Plain Text
Title : Notabenoid
Language : Russian
Text #4
ID : 9
Format : UTF-8
Codec ID : S_TEXT/UTF8
Codec ID/Info : UTF-8 Plain Text
Language : English
Menu
00:00:00.000 : en:Chapter 01
00:05:57.607 : en:Chapter 02
00:12:24.911 : en:Chapter 03
00:18:02.123 : en:Chapter 04
00:23:00.879 : en:Chapter 05
00:30:54.352 : en:Chapter 06
00:37:02.387 : en:Chapter 07
00:42:14.073 : en:Chapter 08
00:46:11.769 : en:Chapter 09
00:51:07.314 : en:Chapter 10
00:54:36.690 : en:Chapter 11
01:00:48.812 : en:Chapter 12
01:05:30.635 : en:Chapter 13
01:10:15.670 : en:Chapter 14
01:14:27.838 : en:Chapter 15
01:19:21.090 : en:Chapter 16

Скриншоты

Other forum [Profile] [PM]
Similar theme
Forum Topic Author Torrent Replies Last Post
./templates/default/images/folder_dl.gif Техническая и научно-популярная литература В.Б. Атабеков | Заземляющие устройства электрических сетей и подстанций (1967) [PDF] UndegraundMen
0 | 1

0 | 814

3

2013-11-28 23:07
UndegraundMen Latest
Display posts from previous:    
Reply to topic

The time now is: Today 05:23

All times are GMT + 3 Hours



You cannot post new topics in this forum
You cannot reply to topics in this forum
You cannot edit your posts in this forum
You cannot delete your posts in this forum
You cannot vote in polls in this forum
You cannot attach files in this forum
You cannot download files in this forum