Today is a free download without charge Download

Космическая одиссея 2001 года / 2001: A Space Odyssey (Стэнли Кубрик / Stanley Kubrick) [1968, Великобритания, США, BDRemux 1080p] DUB + MVO + DVO + AVO + Original + Sub (Rus, Eng)

Reply to topic
 
Author
Message

Omen ®

Longevity: 8 years 5 months

Posts: 181087

Торрент-статистика

Post 21-Jan-2013 08:56

[Quote]

Космическая одиссея 2001 года / 2001: A Space Odyssey
Страна: Великобритания, США
Студия: MGM
Жанр: научная фантастика, приключения, драма
Год выпуска: 1968
Продолжительность: 02:28:51
Перевод 1: Профессиональный (многоголосый закадровый) Киномания
Перевод 2: Профессиональный (дублированный) Варус Видео
Перевод 3: Профессиональный (двухголосый закадровый) НТВ+
Перевод 4: Авторский (одноголосый закадровый) Гаврилов
Cубтитры: русские, английские
Оригинальная аудиодорожка: английский
Режиссер: Стэнли Кубрик / Stanley Kubrick
Сценарий: Артур Ч. Кларк, Стэнли Кубрик
В ролях: Кир Дулли, Гари Локвуд, Уильям Сильвестер, Дэниэл Риктер и др.
Описание: "Космическая одиссея 2001 года" - плод совместного творчества известного британского кинорежиссера Стэнли Кубрика и не менее известного британского писателя-фантаста сэра Артура Кларка, несомненно, является лучшим англо-американским научно-фантастическим фильмом 20 века. Безукоризненное мастерство Кубрика и философская глубина идей Кларка позволили миру еще раз сквозь призму грандиозной масштабности сюжета и супер реалистичных спецэфектов, не перестающих поражать своим техническим совершенством даже сейчас, задать себе "главный" вопрос - "Кто мы, зачем и как мы появились на этом, затерянном во Вселенной, маленьком голубом шарике?" Всем, кто хоть раз в жизни, в ночной тиши обращал свой взор к звездам и задавал себе подобный вопрос, следует обязательно посмотреть эту картину.
Доп. информация: Мною проделана большая работа по синхронизации дорожек "НТВ+" и "Варус Видео". В первой добавлены недостающие фрагменты из многоголоски "Киномании", во второй устранена плавающая рассинхронизация, все диалоги подогнаны под изображение.

Тип релиза: BDRemux 1080p
Контейнер: MKV
Видео: VC-1, 1920x1080, 16:9, 13392 kbps, 23,976 fps
Аудио:
1. Rus - Mvo (Киномания), Dolby AC3 5.1, 48 kHz, 448 kbps
2. Rus - Dub (Варус Видео), Dolby AC3 2.0, 48 kHz, 256 kbps
3. Rus - Dvo (НТВ+), Dolby AC3 2.0, 48 kHz, 191 kbps
4. Rus - Avo (Гаврилов), Dolby AC3 5.1, 48 kHz, 384 kbps
5. Eng - Original, Dolby AC3 5.1, 48 kHz, 448 kbps
6. Eng - Original, LPCM 5.1, 48 kHz, 4608 kbps
Формат субтитров: softsub (SRT)
Сэмпл: 256Mb

MediaInfo

Complete name : 2001 A Space Odyssey (1968).mkv
Format : Matroska
Format version : Version 2
File size : 16.5 GiB
Duration : 2h 28mn
Overall bit rate : 15.9 Mbps
Movie name : 2001.A.Space.Odyssey.1968
Encoded date : UTC 2013-01-20 21:07:24
Writing application : mkvmerge v3.3.0 ('Language') built on Mar 24 2010 14:59:24
Writing library : libebml v0.8.0 + libmatroska v0.9.0
Video
ID : 1
Format : VC-1
Format profile : [email protected]
Codec ID : V_MS/VFW/FOURCC / WVC1
Codec ID/Hint : Microsoft
Duration : 2h 28mn
Width : 1 920 pixels
Height : 1 080 pixels
Display aspect ratio : 16:9
Frame rate mode : Constant
Frame rate : 23.976 fps
Chroma subsampling : 4:2:0
Bit depth : 8 bits
Scan type : Progressive
Compression mode : Lossy
Default : Yes
Forced : No
Audio #1
ID : 2
Format : AC-3
Format/Info : Audio Coding 3
Mode extension : CM (complete main)
Format settings, Endianness : Big
Codec ID : A_AC3
Duration : 2h 28mn
Bit rate mode : Constant
Bit rate : 448 Kbps
Channel(s) : 6 channels
Channel positions : Front: L C R, Side: L R, LFE
Sampling rate : 48.0 KHz
Bit depth : 16 bits
Compression mode : Lossy
Stream size : 477 MiB (3%)
Title : Mvo (Киномания), AC3 5.1, 448 kbps
Language : Russian
Default : Yes
Forced : No
Audio #2
ID : 3
Format : AC-3
Format/Info : Audio Coding 3
Mode extension : CM (complete main)
Format settings, Endianness : Big
Codec ID : A_AC3
Duration : 2h 28mn
Bit rate mode : Constant
Bit rate : 256 Kbps
Channel(s) : 2 channels
Channel positions : Front: L R
Sampling rate : 48.0 KHz
Bit depth : 16 bits
Compression mode : Lossy
Stream size : 273 MiB (2%)
Title : Dub (Варус Видео), AC3 2.0, 256 kbps
Language : Russian
Default : No
Forced : No
Audio #3
ID : 4
Format : AC-3
Format/Info : Audio Coding 3
Mode extension : CM (complete main)
Format settings, Endianness : Big
Codec ID : A_AC3
Duration : 2h 28mn
Bit rate mode : Constant
Bit rate : 192 Kbps
Channel(s) : 2 channels
Channel positions : Front: L R
Sampling rate : 48.0 KHz
Bit depth : 16 bits
Compression mode : Lossy
Stream size : 204 MiB (1%)
Title : Dvo (НТВ+), AC3 2.0, 191 kbps
Language : Russian
Default : No
Forced : No
Audio #4
ID : 5
Format : AC-3
Format/Info : Audio Coding 3
Mode extension : CM (complete main)
Format settings, Endianness : Big
Codec ID : A_AC3
Duration : 2h 28mn
Bit rate mode : Constant
Bit rate : 384 Kbps
Channel(s) : 6 channels
Channel positions : Front: L C R, Side: L R, LFE
Sampling rate : 48.0 KHz
Bit depth : 16 bits
Compression mode : Lossy
Stream size : 409 MiB (2%)
Title : Avo (Гаврилов), AC3 5.1, 384 kbps
Language : Russian
Default : No
Forced : No
Audio #5
ID : 6
Format : AC-3
Format/Info : Audio Coding 3
Mode extension : CM (complete main)
Format settings, Endianness : Big
Codec ID : A_AC3
Duration : 2h 28mn
Bit rate mode : Constant
Bit rate : 448 Kbps
Channel(s) : 6 channels
Channel positions : Front: L C R, Side: L R, LFE
Sampling rate : 48.0 KHz
Bit depth : 16 bits
Compression mode : Lossy
Stream size : 477 MiB (3%)
Title : Original, AC3 5.1, 448 kbps
Language : English
Default : No
Forced : No
Audio #6
ID : 7
Format : PCM
Codec ID : A_PCM/INT/LIT
Duration : 2h 28mn
Bit rate mode : Constant
Channel(s) : 6 channels
Sampling rate : 48.0 KHz
Bit depth : 16 bits
Title : Original, LPCM 5.1, 4608 kbps
Language : English
Default : No
Forced : No
Text #1
ID : 8
Format : UTF-8
Codec ID : S_TEXT/UTF8
Codec ID/Info : UTF-8 Plain Text
Language : Russian
Default : Yes
Forced : No
Text #2
ID : 9
Format : UTF-8
Codec ID : S_TEXT/UTF8
Codec ID/Info : UTF-8 Plain Text
Language : English
Default : No
Forced : No
Other forum [Profile] [PM]
Similar theme
Forum Topic Author Torrent Replies Last Post
./templates/default/images/folder_dl.gif Техническая и научно-популярная литература Ю.П.Семенов (ред.) | Ракетно-космическая корпорация «Энергия» имени С. П. Королева на рубеже двух веков [2001] [DJVU] UndegraundMen
1 | 0

0 | 758

0

2013-03-04 22:23
UndegraundMen Latest
./templates/default/images/folder_dl.gif Техническая и научно-популярная литература Е.П.Молотов | Наземные радиотехнические системы управления космическими аппаратами (2004) [PDF] UndegraundMen
1 | 0

0 | 758

1

2013-11-14 11:51
UndegraundMen Latest
Display posts from previous:    
Reply to topic

The time now is: Today 22:39

All times are GMT + 3 Hours



You cannot post new topics in this forum
You cannot reply to topics in this forum
You cannot edit your posts in this forum
You cannot delete your posts in this forum
You cannot vote in polls in this forum
You cannot attach files in this forum
You cannot download files in this forum