Today is a free download without charge Download

Гражданка начальница. Продолжение / Сезон: 2 Серии: 1-2 из ?? (Сергей Виноградов) [2012, криминальная драма, DVB]

Reply to topic
 
Author
Message

Omen ®

Longevity: 8 years 11 months

Posts: 181086

Торрент-статистика

Post 21-Jan-2013 00:44

[Quote]

Гражданка начальница. Продолжение
Год выпуска: 2011
Производство: компания "Мостелефильм"
Жанр: криминальная драма
Продолжительность: ~0:45:00 серия
Субтитры: отсутствуют
Режиссёр: Сергей Виноградов
В ролях: Ирина Низина, Вячеслав Разбегаев, Александр Сирин, Людмила Нильская, Наталья Палагушкина, Алена Кузнецова, Дарья Михайлова, Тимофей Трибунцев, Олег Пичурин, Мария Мясникова, Алексей Панов, Марианна Шергина, Светлана Виноградова-Богатт, Елена Смышляева, Римма Морозова, Роман Горбачев, Светлана Поротикова, Маргарита Иванова, Жанна Виноградова, Мария Звонарёва, Юлия Александрова, Ярослав Бойко, Татьяна Кречетова, Дарья Чаруша, Марина Казанкова, Олеся Судзиловская, Виктория Тарасова, Максим Дрозд, Светлана Чуйкина, Ольга Науменко, Елена Дубровская, Екатерина Носик, Андрей Негривода, Дарья Носик, Денис Жариков, Елена Мироненко, Алиса Тарасенко, Дарья Иванова
Описание: Продолжение истории преподавателя высшей школы милиции Ирины Семеновой.
Семёнова становится инициатором условно-досрочного освобождения Екатерины Пчёлкиной. Ирина идет на повышение. В день выхода Пчёлкиной в колонию прибывает новая партия заключенных. Среди них оказывается Рита — дочь Екатерины. Ирина пытается наладить отношения матери и дочери, но не всем по душе такое рвение…
Доп.информация: это продолжение двухсерийного "сериала" Гражданка начальница (в данных раздачах две серии объединены в один фильм)
Релиз: -Все раздачи сериала / Сэмпл-Качество: DVB (ABS 1 at 75.0°E)
Формат: MPEG-PS
Видео кодек: MPEG2
Аудио кодек: MP2
Видео: MPEG 2, 720x576 (4:3), 25.000 fps, 5140 Kbps (0.496 bit/pixel)
Аудио: MP2, 48.0 KHz, 2 ch, 192 Kbps, CBR

MediaInfo

ОбщееПолное имя : L:\Раздачи\Гражданка начальница. Продолжение\Гражданка начальница. Продолжение.01.mpgФормат : MPEG-PSРазмер файла : 1,74 ГбайтПродолжительность : 45 м.Режим общего битрейта : ПеременныйОбщий поток : 5441 Кбит/секБиблиотека кодирования : (c) 1998-2012 Womble Multimedia, Inc. / MPEG Video Wizard DVD 5.0.1.100 (03/2011) / Sep 7 2012
ВидеоИдентификатор : 224 (0xE0)Формат : MPEG VideoВерсия формата : Version 2Профиль формата : [email protected]Параметр BVOP формата : ДаПараметр матрицы формата : ВыборочнаяПараметр GOP формата : VariableПродолжительность : 45 м.Вид битрейта : ПеременныйБитрейт : 5140 Кбит/секМаксимальный битрейт : 15,0 Мбит/секШирина : 720 пикселейВысота : 576 пикселейСоотношение сторон : 4:3Частота кадров : 25,000 кадров/секСтандарт вещания : PALЦветовое пространство : YUVСубдискретизация насыщенности : 4:2:0Битовая глубина : 8 битТип развёртки : ЧересстрочнаяПорядок развёртки : Верхнее поле первоеМетод сжатия : С потерямиБит/(Пиксели*Кадры) : 0.496Размер потока : 1,64 Гбайт (94%)Выравнивание : (c) 1998-2012 Womble Multimedia, Inc. / MPEG Video Wizard DVD 5.0.1.100 (03/2011) / Sep 7 2012Заголовок : (c) 1998-2012 Womble Multimedia, Inc. / MPEG Video Wizard DVD 5.0.1.100 (03/2011) / Sep 7 2012Библиотека кодирования : (c) 1998-2012 Womble Multimedia, Inc. / MPEG Video Wizard DVD 5.0.1.100 (03/2011) / Sep 7 2012
АудиоИдентификатор : 192 (0xC0)Формат : MPEG AudioВерсия формата : Version 1Профиль формата : Layer 2Продолжительность : 45 м.Вид битрейта : ПостоянныйБитрейт : 192 Кбит/секКаналы : 2 каналаЧастота : 48,0 КГцМетод сжатия : С потерямиЗадержка видео : -40 мс.Размер потока : 62,7 Мбайт (4%)
Меню

Скриншоты


Раздача ведется путем добавления новых серий

Внимание! Раздача ведётся путём добавления новых серий; при каждом добавлении создётся новый торрент. Чтобы начать докачку новой серии, пользователям необходимо сделать следующее:
(1) остановить скачивание,
(2) удалить старый торрент у себя из клиента (старые серии удалять не надо),
(3) скачать новый торрент и запустить его у себя в клиенте вместо старого, при этом указать клиенту путь в старую папку куда и должно происходить скачивание новых серий.
Ваш клиент при этом должен произвести хеширование (проверку) старой папки (если не производит сам - помогите ему сделать это), и будет докачивать только те серии которых у вас ещё нет. Старые серии при этом не удаляются, а продолжают раздаваться!
Eсли вы уже удалили старые серии, то предотвратить повторную закачку старых серий можно, отжав галочку в соответствующих местах при запуске нового торрента.
Other forum [Profile] [PM]
Display posts from previous:    
Reply to topic

The time now is: Today 11:14

All times are GMT + 3 Hours



You cannot post new topics in this forum
You cannot reply to topics in this forum
You cannot edit your posts in this forum
You cannot delete your posts in this forum
You cannot vote in polls in this forum
You cannot attach files in this forum
You cannot download files in this forum