Today is a free download without charge Download

Супер циклон / Super Cyclone (Лиз Адамс / Liz Adams) [2012, США, фантастика, боевик, катастрофа, BDRemux 1080p] MVO (SyFy) + Original Sub Eng

Reply to topic
 
Author
Message

Omen ®

Longevity: 8 years 5 months

Posts: 181087

Торрент-статистика

Post 21-Jan-2013 00:44

[Quote]

Супер циклон / Super Cyclone Год выпуска: 2012
Страна: США
Жанр: фантастика, боевик, катастрофа
Продолжительность: 01:29:14.974
Перевод: Профессиональный (многоголосый закадровый) SyFy
Оригинальная аудиодорожка: Английская
Субтитры: Английские
Студия: The Global Asylum
Режиссёр: Лиз Адамс / Liz Adams
В ролях: Мин-На, Николас Туртурро, Энди Клеменс, Дэрин Купер, Джонатан Ле Биллон, Дилан Вокс, АннаМария Демара, Стив Хэнкс, Уэйн Лопез, Митч Лернер, Джейми Бертон-Оур и др.
Описание: Когда нефтедобытчики на морском шельфе у побережья Южной Калифорнии случайно начинают бурить слишком близко к ядру Земли, это приводит к извержению вулкана и угрозе возникновения супермощного циклона на восточном побережье США. Метеоролог и инженер-нефтяник сражаются со стихией, чтобы предотвратить катастрофу.
  • Кинопоиск
  • IMDB
  • Blu-ray.com
  • Сэмпл
    Качество: BDRemux 1080p
    Контейнер: MKV
    Видео кодек: MPEG-4 AVC Video
    Аудио кодек: Dolby Digital Audio / DTS-HD Master Audio
    Видео: MPEG-4 AVC Video / 19968 kbps / 1920x1080p / 23,976 fps / 16:9 / High Profile 4.1
    Аудио 1: Русский / Dolby Digital Audio / 192 kbps / 2.0 / 48 kHz / 16-bit (MVO SyFy)
    Аудио 2: English / DTS-HD Master Audio / 2147 kbps / 5.1 / 48 kHz / 16-bit (DTS Core: 5.1 / 48 kHz / 1509 kbps / 16-bit) (Оригинал)
    Навигация по главам: да

Скриншот с названием фильма

MediaInfo

Z:\/*spam*/\Супер циклон (Super Cyclone) 2012, США, фантастика, боевик, катастрофа, BDRemux 1080p GORENOISE.mkv
General
Unique ID : 198707571712496997205660606162860433566 (0x957DAFAE5383F0C88E6AD58F19EEE09E)
Complete name : Z:\/*spam*/\Супер циклон (Super Cyclone) 2012, США, фантастика, боевик, катастрофа, BDRemux 1080p GORENOISE.mkv
Format : Matroska
Format version : Version 4 / Version 2
File size : 13.9 GiB
Duration : 1h 29mn
Overall bit rate mode : Variable
Overall bit rate : 22.3 Mbps
Movie name : GORENOISE
Encoded date : UTC 2013-01-20 21:13:48
Writing application : mkvmerge v6.0.0 ('Coming Up For Air') built on Jan 20 2013 09:52:00
Writing library : libebml v1.3.0 + libmatroska v1.4.0
Video #1
ID : 1
Format : AVC
Format/Info : Advanced Video Codec
Format profile : [email protected]
Format settings, CABAC : Yes
Format settings, ReFrames : 4 frames
Format settings, GOP : M=3, N=24
Codec ID : V_MPEG4/ISO/AVC
Duration : 1h 29mn
Bit rate mode : Variable
Bit rate : 20.1 Mbps
Maximum bit rate : 33.0 Mbps
Width : 1 920 pixels
Height : 1 080 pixels
Display aspect ratio : 16:9
Frame rate mode : Constant
Frame rate : 23.976 fps
Standard : NTSC
Color space : YUV
Chroma subsampling : 4:2:0
Bit depth : 8 bits
Scan type : Progressive
Bits/(Pixel*Frame) : 0.405
Stream size : 12.5 GiB (90%)
Title : GORENOISE
Language : English
Default : Yes
Forced : No
Color primaries : BT.709
Transfer characteristics : BT.709
Matrix coefficients : BT.709
Audio #2
ID : 2
Format : AC-3
Format/Info : Audio Coding 3
Mode extension : CM (complete main)
Format settings, Endianness : Big
Codec ID : A_AC3
Duration : 1h 29mn
Bit rate mode : Constant
Bit rate : 192 Kbps
Channel(s) : 2 channels
Channel positions : Front: L R
Sampling rate : 48.0 KHz
Bit depth : 16 bits
Compression mode : Lossy
Stream size : 123 MiB (1%)
Title : Профессиональный (многоголосый закадровый) SyFy
Language : Russian
Default : Yes
Forced : No
Audio #3
ID : 3
Format : DTS
Format/Info : Digital Theater Systems
Format profile : MA / Core
Codec ID : A_DTS
Duration : 1h 29mn
Bit rate mode : Variable
Bit rate : 1 561 Kbps / 1 510 Kbps
Channel(s) : 6 channels
Channel positions : Front: L C R, Side: L R, LFE
Sampling rate : 48.0 KHz
Bit depth : 16 bits
Compression mode : Lossless / Lossy
Title : Оригинал
Language : English
Default : No
Forced : No
Text #4
ID : 4
Format : UTF-8
Codec ID : S_TEXT/UTF8
Codec ID/Info : UTF-8 Plain Text
Title : Полные
Language : English
Default : No
Forced : No
Menu
00:00:00.000 : en:00:00:00.000
00:09:59.974 : en:00:09:59.974
00:19:59.990 : en:00:19:59.990
00:29:59.965 : en:00:29:59.965
00:39:59.981 : en:00:39:59.981
00:49:59.955 : en:00:49:59.955
00:59:59.971 : en:00:59:59.971
01:09:59.946 : en:01:09:59.946
01:19:59.920 : en:01:19:59.920

Полноразмерные постеры

Other forum [Profile] [PM]
Similar theme
Forum Topic Author Torrent Replies Last Post
./templates/default/images/folder_dl.gif Шрифты 37 ttf супер шрифтов в стиле "Дикий Запад" Omen
1 | 0

0 | 2500

28

2012-12-07 21:37
Omen Latest
Display posts from previous:    
Reply to topic

The time now is: Today 19:44

All times are GMT + 3 Hours



You cannot post new topics in this forum
You cannot reply to topics in this forum
You cannot edit your posts in this forum
You cannot delete your posts in this forum
You cannot vote in polls in this forum
You cannot attach files in this forum
You cannot download files in this forum