Today is a free download without charge Download

Черный хлеб / Pa Negre / Pan Negro (Агусти Вильяронга / Agusti Villaronga) [2010, Испания, Драма, DVDRip] VO (Вячеслав Прошин) + original cat

Reply to topic
 
Author
Message

nsa1977 ®

Gender:

Longevity: 8 years 11 months

Posts: 1473

Location: Пенза

Торрент-статистика

Post 04-May-2011 04:48

[Quote]

Черный хлеб / Pa Negre / Pan Negro
Страна: Испания
Жанр: Драма
Год выпуска: 2010
Продолжительность: 01:48:13
Перевод: Любительский (одноголосый закадровый)
Cубтитры: нет
Оригинальная аудиодорожка: каталанский
Режиссер: Агусти Вильяронга / Agusti Villaronga-В ролях: Франсеск Коломер, Марина Комас, Нора Навас, Рохер Касамайор, Луиза Кастель,
Мерсе Аранега, Марина Гатель, Элиза Крею, Лайя Маруль, Эдуард Фернандес, Серхи Лопес, Жоан Карлес Суау и др.-Описание: В тяжелые послевоенные годы, в деревне, затерянной в сельской Каталонии, мальчик
по имени Андреу находит в лесу тела мужчины и его сына. Власти обвиняют в их смерти отца Андреу.
Новый жизненный опыт учит мальчика, что в мире взрослых, пронизанном ложью, необходимо быть крайне
осторожным. И, чтобы выжить, он предает свои корни...
По одноименному роману Эмили Тейшидор.-Доп. информация: Обладатель 9 национальных наград в области кинематографии "Гойя" за 2010 год.-Релиз: Кинопортал Близзард
Перевод: Алексей Простотак aka kukuy999, Muraki, keju, ray3000
Озвучание: Вячеслав Прошин- -Качество видео: DVDRip
Формат видео: AVI
Видео кодек:Xvid
Аудио кодек: AC3
Видео:720x384 25.00fps 1380Kbps
Аудио 1: Dolby AC3 48000Hz 6ch 448kbps (русский)
Аудио 2: Dolby AC3 48000Hz 6ch 448kbps (каталанский)

MediaInfo

General
Complete name : I:\Чёрный хлеб\Pa.Negre.rus.cat.avi
Format : AVI
Format/Info : Audio Video Interleave
File size : 1.73 GiB
Duration : 1h 48mn
Overall bit rate : 2 290 Kbps
Movie name : Pa Negre (2010)
Writing application : VirtualDubModRus 1.5.10.2 (build 2540/release)
Writing library : VirtualDubMod build 2540/release
Original source form/Name : Pa Negre (2010) DVD9
Video
ID : 0
Format : MPEG-4 Visual
Format profile : Advanced [email protected]
Format settings, BVOP : 2
Format settings, QPel : No
Format settings, GMC : No warppoints
Format settings, Matrix : Default (H.263)
Muxing mode : Packed bitstream
Codec ID : XVID
Codec ID/Hint : XviD
Duration : 1h 48mn
Bit rate : 1 380 Kbps
Width : 720 pixels
Height : 384 pixels
Display aspect ratio : 1.875
Frame rate : 25.000 fps
Color space : YUV
Chroma subsampling : 4:2:0
Bit depth : 8 bits
Scan type : Progressive
Compression mode : Lossy
Bits/(Pixel*Frame) : 0.200
Stream size : 1.04 GiB (60%)
Writing library : XviD 1.2.1 (UTC 2008-12-04)
Audio #1
ID : 1
Format : AC-3
Format/Info : Audio Coding 3
Mode extension : CM (complete main)
Codec ID : 2000
Duration : 1h 48mn
Bit rate mode : Constant
Bit rate : 448 Kbps
Channel(s) : 6 channels
Channel positions : Front: L C R, Side: L R, LFE
Sampling rate : 48.0 KHz
Bit depth : 16 bits
Compression mode : Lossy
Stream size : 347 MiB (20%)
Alignment : Split accross interleaves
Interleave, duration : 40 ms (1.00 video frame)
Interleave, preload duration : 500 ms
Audio #2
ID : 2
Format : AC-3
Format/Info : Audio Coding 3
Mode extension : CM (complete main)
Codec ID : 2000
Duration : 1h 48mn
Bit rate mode : Constant
Bit rate : 448 Kbps
Channel(s) : 6 channels
Channel positions : Front: L C R, Side: L R, LFE
Sampling rate : 48.0 KHz
Bit depth : 16 bits
Compression mode : Lossy
Stream size : 347 MiB (20%)
Alignment : Split accross interleaves
Interleave, duration : 40 ms (1.00 video frame)
Interleave, preload duration : 500 ms

Скриншот c названием фильма

 
    

_________________


Last edited by nsa1977 on 2011-05-04 15:48; edited 2 times in total
Other forum [Profile] [PM]
Display posts from previous:    
Reply to topic

The time now is: Today 06:10

All times are GMT + 3 Hours



You cannot post new topics in this forum
You cannot reply to topics in this forum
You cannot edit your posts in this forum
You cannot delete your posts in this forum
You cannot vote in polls in this forum
You cannot attach files in this forum
You cannot download files in this forum