Today is a free download without charge Download

[Белорусский] Уладзімір Караткевіч - Ладдзя Роспачы / Владимир Короткевич - Ладья Отчаяния [Стары Ольса - Д. Сосновский, А. Апанович, И. Кублицкий, К. Радзивилова, А. Чумаков, 2004, FLAC, image+cue, lossless]

Reply to topic
 
Author
Message

Omen ®

Longevity: 8 years 6 months

Posts: 181087

Торрент-статистика

Post 20-Jan-2013 20:32

[Quote]

Уладзімір Караткевіч - Ладдзя Роспачы / Владимир Короткевич - Ладья Отчаяния
Год выпуска: 2004
Автор: Уладзімір Караткевіч / Владимир Короткевич
Исполнитель: Стары Ольса (Д. Сосновский, А. Апанович, И. Кублицкий, К. Радзивилова, А. Чумаков)
Издательство: БМА
Язык: Беларуский
Тип: аудиоспектакль
Аудио кодек: FLAC
Тип рипа: image+.cue
Битрейт аудио: lossless
Время звучания: 01:15:21
Содержание:
01. Выліваха
02. Бона Сфорца
03. Сьмерць
04. Ладдзя
05. Рагачоўцы
06. Шыпшына
07. Бярозка
08. Бераг сьмерці
09. Гульня
10. Другая гульня
11. Дарагі дар
12. Вяртаньне

Лог создания рипа

Exact Audio Copy V1.0 beta 3 from 29. August 2011
EAC extraction logfile from 17. October 2012, 18:55
Стары Ольса / Ладдзя Роспачы
Used drive : _NEC DVD_RW ND-3550A Adapter: 0 ID: 0
Read mode : SecureUtilize accurate stream : YesDefeat audio cache : YesMake use of C2 pointers : No
Read offset correction : 48Overread into Lead-In and Lead-Out : NoFill up missing offset samples with silence : YesDelete leading and trailing silent blocks : NoNull samples used in CRC calculations : YesUsed interface : Native Win32 interface for Win NT & 2000
Used output format : User Defined EncoderSelected bitrate : 128 kBit/sQuality : HighAdd ID3 tag : NoCommand line compressor : C:\Program Files\Exact Audio Copy\Flac\flac.exeAdditional command line options : -V -8 -T "Date=%year%" -T "Genre=%genre%" %source%
TOC of the extracted CD
Track | Start | Length | Start sector | End sector --------------------------------------------------------- 1 | 0:00.00 | 11:01.05 | 0 | 49579 2 | 11:01.05 | 8:32.40 | 49580 | 88019 3 | 19:33.45 | 7:00.41 | 88020 | 119560 4 | 26:34.11 | 6:59.17 | 119561 | 151002 5 | 33:33.28 | 2:21.53 | 151003 | 161630 6 | 35:55.06 | 2:59.68 | 161631 | 175123 7 | 38:54.74 | 3:23.37 | 175124 | 190385 8 | 42:18.36 | 7:02.13 | 190386 | 222048 9 | 49:20.49 | 6:49.74 | 222049 | 252797 10 | 56:10.48 | 7:58.40 | 252798 | 288687 11 | 64:09.13 | 6:41.23 | 288688 | 318785 12 | 70:50.36 | 5:01.19 | 318786 | 341379
Range status and errors
Selected range
Filename F:\Music lossless\1\Стары Ольса - Ладдзя Роспачы.wav
Peak level 95.4 % Extraction speed 1.1 X Range quality 99.9 % Test CRC B901A0C2 Copy CRC B901A0C2 Copy OK
No errors occurred
AccurateRip summary
Track 1 not present in databaseTrack 2 not present in databaseTrack 3 not present in databaseTrack 4 not present in databaseTrack 5 not present in databaseTrack 6 not present in databaseTrack 7 not present in databaseTrack 8 not present in databaseTrack 9 not present in databaseTrack 10 not present in databaseTrack 11 not present in databaseTrack 12 not present in database
None of the tracks are present in the AccurateRip database
End of status report
==== Log checksum CA5DDCB9B5166669ADD84CBDF43D220F75F2A9BDF83FD81556A19129257C7788 ====

Лог проверки качества

Started at: четверг, 18. 10. 2012. - 20:36.111 file found
01 -===- F:\Music lossless\1\Стары Ольса - Дыскаграфія lossless\2004 - Ладдзя Роспачы\Стары Ольса - Ладдзя Роспачы.flac Extracted successfully Conclusion: this track is CDDA with probability 100% Tempfile successfully deleted.
Finished at: четверг, 18. 10. 2012. - 21:24.42 (operation time: 0:48.30)
Other forum [Profile] [PM]
Display posts from previous:    
Reply to topic

The time now is: Today 20:38

All times are GMT + 3 Hours



You cannot post new topics in this forum
You cannot reply to topics in this forum
You cannot edit your posts in this forum
You cannot delete your posts in this forum
You cannot vote in polls in this forum
You cannot attach files in this forum
You cannot download files in this forum