Today is a free download without charge Download

ДЕЛО ГАСТРОНОМА №1 / 1-8 серии из 8/ (Сергей Ашкенази) [2011, историческая драма, WEB-DL 720p]

Reply to topic
 
Author
Message

Omen ®

Longevity: 8 years 11 months

Posts: 181086

Торрент-статистика

Post 20-Jan-2013 20:32

[Quote]

ДЕЛО ГАСТРОНОМА №1- Год выпуска: 2011
Жанр: историческая драма
Производство: Россия. Star Media
Продолжительность: ~ 00:48:00
Режиссер: Сергей Ашкенази
В ролях: Сергей Маковецкий, Михаил Пореченков, Юлия Пересильд, Мария Шукшина, Дарья Михайлова, Игорь Черневич, Алексей Секирин, Сергей Векслер, Анна Горшкова, Евгения Симонова
Описание:
Весна 1982 года. Брежнев еще в силе, однако, все понимают, что ему осталось недолго. В этот самый момент Андропов решает расчистить «авгиевы конюшни коррупции и вседозволенности» в стране. Взят у себя на рабочем месте директор магазина «Березка» Анилин с крупной суммой денег в инвалюте, арестован Аримин, начальник плодоовощной базы. Однако основная задача следствия другая – взять Беркутова, директора первого гастронома. Все знают, что Беркутов «отоваривает» дефицитными продуктами многих влиятельных лиц в стране и его «свержение» стало бы хорошим заделом в деле борьбы с коррупцией.
Перед начальником следственного отдела полковником Скачко ставится задача – собрать компромат на директора «Елисеевского» гастронома. Скачко решает действовать через ближайшее беркутовское окружение, а именно - через Зою Платонову, первую помощницу и доверенное лицо Беркутова.
Во время «разработки» Зои Платоновой выясняется интересный факт – у сына Платоновой, Антона, совсем недавний роман с женой Скачко Машей. И именно Маша передала Антону запрещенную для распространения книгу. Чтобы спасти Машу, Скачко вынужден отпустить Антона и оставить в покое Зою Платонову.
Тем временем в верхах разворачивается борьба за власть – время Брежнева совсем на исходе. На его место пророчат Андропова.
Беркутова арестовывают. Познакомившись с Беркутовым, Скачко проникается симпатией к этому человеку – ветеран войны, он, как выяснилось, всего лишь являлся заложником системы: ему сказали распределять излишки, он их распределял между властными структурами, себе ничего не оставляя и даже подержанный Мерседес купил на честно заработанные и накопленные за три года деньги. Скачко понимает, что судить будут не того человека. Однако «машина правосудия» уже запущена – после смерти Брежнева к власти приходит Андропов, стране нужно показательное «дело» по борьбе с коррупцией.
Cэмпл: http://multi-up.com/818876
Качество: WEB-DL 720p
Формат: MKV
Видео кодек: H.264
Аудио кодек: AAC
Видео: MPEG4 Video (H264) 1280x720 25fps 1793kbps 0.078bit/pixel
Аудио: AAC 44100Hz stereo 188kbps

MI

Общее
Полное имя : E:\Сериалы\ДЕЛО ГАСТРОНОМА №1\Дело гастронома №1 hdtv 720p\Дело_гастронома_№1_1_серия.mkv
Формат : MPEG-4
Профиль формата : Base Media
Идентификатор кодека : isom
Размер файла : 693 Мбайт
Продолжительность : 48 м.
Общий поток : 1989 Кбит/сек
Программа кодирования : Lavf54.22.104
Видео
Идентификатор : 1
Формат : AVC
Формат/Информация : Advanced Video Codec
Профиль формата : [email protected]
Параметр CABAC формата : Да
Параметр ReFrames формата : 3 кадра
Идентификатор кодека : avc1
Идентификатор кодека/Информация : Advanced Video Coding
Продолжительность : 48 м.
Битрейт : 1800 Кбит/сек
Ширина : 1280 пикселей
Высота : 720 пикселей
Соотношение сторон : 16:9
Режим частоты кадров : Постоянный
Частота кадров : 25,000 кадров/сек
Цветовое пространство : YUV
Субдискретизация насыщенности : 4:2:0
Битовая глубина : 8 бит
Тип развёртки : Прогрессивная
Бит/(Пиксели*Кадры) : 0.078
Размер потока : 624 Мбайт (90%)
Библиотека кодирования : x264 core 120
Настройки программы : cabac=1 / ref=3 / deblock=1:0:0 / analyse=0x3:0x133 / me=umh / subme=7 / psy=1 / psy_rd=1.00:0.00 / mixed_ref=1 / me_range=32 / chroma_me=1 / trellis=2 / 8x8dct=1 / cqm=0 / deadzone=21,11 / fast_pskip=1 / chroma_qp_offset=-2 / threads=12 / sliced_threads=0 / nr=0 / decimate=1 / interlaced=0 / bluray_compat=0 / constrained_intra=0 / bframes=0 / weightp=0 / keyint=100 / keyint_min=50 / scenecut=40 / intra_refresh=0 / rc_lookahead=50 / rc=2pass / mbtree=0 / bitrate=1800 / ratetol=1.0 / qcomp=0.20 / qpmin=10 / qpmax=51 / qpstep=4 / cplxblur=20.0 / qblur=0.5 / vbv_maxrate=2000 / vbv_bufsize=2000 / nal_hrd=none / ip_ratio=1.40 / aq=1:1.00
Основные цвета : BT.709
Характеристики трансфера : BT.709
Коэффициенты матрицы : BT.709
Аудио
Идентификатор : 2
Формат : AAC
Формат/Информация : Advanced Audio Codec
Профиль формата : LC
Идентификатор кодека : 40
Продолжительность : 48 м.
Вид битрейта : Постоянный
Битрейт : 192 Кбит/сек
Каналы : 2 канала
Расположение каналов : Front: L R
Частота : 44,1 КГц
Метод сжатия : С потерями
Размер потока : 65,6 Мбайт (9%)

Скриншоты











Other forum [Profile] [PM]
Display posts from previous:    
Reply to topic

The time now is: Today 13:40

All times are GMT + 3 Hours



You cannot post new topics in this forum
You cannot reply to topics in this forum
You cannot edit your posts in this forum
You cannot delete your posts in this forum
You cannot vote in polls in this forum
You cannot attach files in this forum
You cannot download files in this forum