Today is a free download without charge Download

Обучаю игре на гитаре /1-4 серии из 4/ (Владимир Янощук) [2012, мелодрама, WEB-DL 1080p]

Reply to topic
 
Author
Message

Omen ®

Longevity: 9 years

Posts: 181086

Торрент-статистика

Post 20-Jan-2013 20:32

[Quote]

Обучаю игре на гитаре
Год выпуска: 2012
Производство: Россия, STAR MEDIA
Жанр: мелодрама
Продолжительность: 4х~00:44:00
Режиссёр: Владимир Янощук
В ролях: Валерий Николаев, Алина Сергеева, Илья Глинников, Стас Боклан, Мария Звонарева, Яна Соболевская
Описание: Олег Марков – гениальный 40-ка летний хирург собирается покончить с жизнью. От отчаянного поступка его спасает звонок с работы. На кону жизнь 10-ти летнего мальчишки. Олег спасает ребенка. Мальчишка напоминает ему о молодости, упущенных возможностях. Когда то мир был наполнен смыслом. Он играл на гитаре, любил. Далекий 1989 год – студенческие годы и первокурсница Марта. В больших уродливых очках так трогательно влюбленная в него – музыканта со старшего курса. Кто тогда знал, что спустя 10 лет эта невзрачная девчушка перевернет его мир. И уже он – Олег будет готов бросить к ее ногам весь мир. Откажется от семьи. Только вот роковая авария навсегда разлучит их. Возле больничной кровати Олега месяцами останется дежурить жена. Марта исчезнет. Исчезнет навсегда из жизни, но не из сердца.
И вот сейчас возле кровати спасенного мальчишки сидит она – Марта, только старше и еще красивее. Олег догадывается - мальчик его сын. Ему становятся ясны причины исчезновения любимой женщины. Они вновь обретают друг - друга, но есть одна страшная тайна. Олег смертельно болен, именно от безысходности болезни, он хотел покончить собой. Марта узнает о болезни. Она уговаривает его оперироваться. После сложной операции Олег видит сон – его сын играет на гитаре. Ту самую песню, которую когда то написала для него девочка в уродливых очках.
Сэмпл: http://multi-up.com/818918
Качество: WEB-DL 1080p
Формат: MKV
Видео кодек: AVC1
Аудио кодек: AAC
Видео: MPEG4 Video (H264) 1920x1080 25fps 4000kbps 0.077bit/pixel
Аудио: AAC 44100Hz stereo 192kbps

MI

Общее
Полное имя : E:\Сериалы\Обучаю игре на гитаре\Обучаю игре на гитаре hdtv 1080p\Обучаю_игре_на_гитаре_01_серия.mkv
Формат : MPEG-4
Профиль формата : Base Media
Идентификатор кодека : isom
Размер файла : 1,19 Гбайт
Продолжительность : 40 м.
Общий поток : 4197 Кбит/сек
Программа кодирования : Lavf54.22.104
Видео
Идентификатор : 1
Формат : AVC
Формат/Информация : Advanced Video Codec
Профиль формата : [email protected]
Параметр CABAC формата : Да
Параметр ReFrames формата : 3 кадра
Идентификатор кодека : avc1
Идентификатор кодека/Информация : Advanced Video Coding
Продолжительность : 40 м.
Битрейт : 4000 Кбит/сек
Ширина : 1920 пикселей
Высота : 1080 пикселей
Соотношение сторон : 16:9
Режим частоты кадров : Постоянный
Частота кадров : 25,000 кадров/сек
Цветовое пространство : YUV
Субдискретизация насыщенности : 4:2:0
Битовая глубина : 8 бит
Тип развёртки : Прогрессивная
Бит/(Пиксели*Кадры) : 0.077
Размер потока : 1,14 Гбайт (95%)
Библиотека кодирования : x264 core 120
Настройки программы : cabac=1 / ref=3 / deblock=1:0:0 / analyse=0x3:0x133 / me=umh / subme=7 / psy=1 / psy_rd=1.00:0.00 / mixed_ref=1 / me_range=32 / chroma_me=1 / trellis=2 / 8x8dct=1 / cqm=0 / deadzone=21,11 / fast_pskip=1 / chroma_qp_offset=-2 / threads=12 / sliced_threads=0 / nr=0 / decimate=1 / interlaced=0 / bluray_compat=0 / constrained_intra=0 / bframes=0 / weightp=0 / keyint=75 / keyint_min=26 / scenecut=40 / intra_refresh=0 / rc_lookahead=50 / rc=2pass / mbtree=0 / bitrate=4000 / ratetol=1.0 / qcomp=0.20 / qpmin=10 / qpmax=51 / qpstep=4 / cplxblur=20.0 / qblur=0.5 / vbv_maxrate=5000 / vbv_bufsize=5000 / nal_hrd=none / ip_ratio=1.40 / aq=1:1.00
Основные цвета : BT.709
Характеристики трансфера : BT.709
Коэффициенты матрицы : BT.709
Аудио
Идентификатор : 2
Формат : AAC
Формат/Информация : Advanced Audio Codec
Профиль формата : LC
Идентификатор кодека : 40
Продолжительность : 40 м.
Вид битрейта : Постоянный
Битрейт : 192 Кбит/сек
Каналы : 2 канала
Расположение каналов : Front: L R
Частота : 44,1 КГц
Метод сжатия : С потерями
Размер потока : 55,9 Мбайт (5%)

Скриншоты









Other forum [Profile] [PM]
Display posts from previous:    
Reply to topic

The time now is: Today 18:09

All times are GMT + 3 Hours



You cannot post new topics in this forum
You cannot reply to topics in this forum
You cannot edit your posts in this forum
You cannot delete your posts in this forum
You cannot vote in polls in this forum
You cannot attach files in this forum
You cannot download files in this forum