Today is a free download without charge Download

Женщина не в себе / A woman under the influence (Джон Кассаветес / John Cassavetes) [1974, США, драма, BDRip 720p] 2x MVO + AVO (Кузнецов) + Sub Eng + Original Eng

Reply to topic
 
Author
Message

Omen ®

Longevity: 8 years 5 months

Posts: 181087

Торрент-статистика

Post 20-Jan-2013 20:32

[Quote]

Женщина не в себе / A woman under the influence
Страна: США
Жанр: драма
Год выпуска: 1974
Продолжительность: 02:26:26
Перевод: Профессиональный (многоголосый закадровый) Культура
Перевод: Профессиональный (многоголосый закадровый)
Перевод: Авторский (одноголосый закадровый) С.Кузнецов
Cубтитры: английские
Оригинальная аудиодорожка: английский-Режиссер: Джон Кассаветес / John Cassavetes
В ролях: Питер Фальк, Джина Роулендс, Фред Дрэйпер, Леди Роулендс, Кэтерин Кассаветис, Мэттью Лаборто, Мэттью Кэссел, Кристина Грисанти, О.Г. Данн, Марио Галло
Описание: Мейбл Лонгетти - патологически неуверенная в, себе женщина на грани нервного срыва, переживающие непростой этап в отношениях со своим мужем, Ником в попытках сохранить брак.
Наиболее известная картина Джона Кассаветеса, которая принесла своему создателю номинацию на премию "Оскар" за "Лучшую режиссуру", была, по иронии судьбы, профинансирована непосредственно режиссером и актерами, и стала первым прецедентом независимой кинодистрибьюции в США.
За исполнение главной женской роли Джина Роулендс была представлена на премию "Оскар" и получила "Золотой Глобус".
IMDb || КиноПоиск-Тип релиза: BDRip 720p [EbP]
Контейнер: MKV
Видео: H.264/AVC, 1280x692 at 24.000 fps, ~14 500 Kbps
Аудио#1: Russian: 48 kHz, AC3, 1.0 ch, ~96.00 kbps |Многоголосый закадровый, Культура|
Аудио#2: Russian: 48 kHz, AC3, 1.0 ch, ~96.00 kbps |Многоголосый закадровый|
Аудио#3: Russian: 48 kHz, AC3, 1.0 ch, ~96.00 kbps |Авторский одноголосый закадровый, С.Кузнецов|
Аудио#4: English: FLAC 2.0 ch, 348 Kbps
Формат субтитров: softsub (SRT)
Сэмпл

MediaInfo

x264 Info

x264 [info]: frame I:1016 Avg QP:15.86 size:151696
x264 [info]: frame P:39773 Avg QP:17.91 size:102820
x264 [info]: frame B:169881 Avg QP:20.17 size: 68756
x264 [info]: consecutive B-frames: 0.9% 1.2% 5.6% 12.8% 12.4% 48.5% 5.4% 2.2% 10.3% 0.7%
encoded 210670 frames, 2.75 fps, 14498.23 kb/s
Format : Matroska
Format version : Version 2
File size : 15.5 GiB
Duration : 2h 26mn
Overall bit rate mode : Variable
Overall bit rate : 15.1 Mbps
Encoded date : UTC 2013-01-19 07:55:41
Writing application : mkvmerge v5.0.1 ('Es ist Sommer') built on Nov 6 2011 16:23:40
Writing library : libebml v1.2.2 + libmatroska v1.3.0
Video
ID : 1
Format : AVC
Format/Info : Advanced Video Codec
Format profile : [email protected]
Format settings, CABAC : Yes
Format settings, ReFrames : 9 frames
Codec ID : V_MPEG4/ISO/AVC
Duration : 2h 26mn
Nominal bit rate : 14.5 Mbps
Width : 1 280 pixels
Height : 692 pixels
Display aspect ratio : 1.850
Frame rate : 23.976 fps
Color space : YUV
Chroma subsampling : 4:2:0
Bit depth : 8 bits
Scan type : Progressive
Bits/(Pixel*Frame) : 0.683
Title : A Woman Under the Influence 1974
Writing library : x264 core 128 r2216 198a7ea
Encoding settings : cabac=1 / ref=9 / deblock=1:-3:-3 / analyse=0x3:0x113 / me=tesa / subme=11 / psy=1 / psy_rd=1.05:0.00 / mixed_ref=1 / me_range=16 / chroma_me=1 / trellis=2 / 8x8dct=1 / cqm=0 / deadzone=21,11 / fast_pskip=0 / chroma_qp_offset=-2 / threads=12 / lookahead_threads=2 / sliced_threads=0 / nr=0 / decimate=0 / interlaced=0 / bluray_compat=0 / constrained_intra=0 / bframes=9 / b_pyramid=2 / b_adapt=2 / b_bias=0 / direct=3 / weightb=1 / open_gop=0 / weightp=2 / keyint=250 / keyint_min=23 / scenecut=40 / intra_refresh=0 / rc=2pass / mbtree=0 / bitrate=14500 / ratetol=1.0 / qcomp=0.60 / qpmin=0 / qpmax=69 / qpstep=4 / cplxblur=20.0 / qblur=0.5 / ip_ratio=1.40 / pb_ratio=1.30 / aq=1:0.60
Language : English
Default : Yes
Forced : No
Audio #1
ID : 2
Format : AC-3
Format/Info : Audio Coding 3
Mode extension : CM (complete main)
Codec ID : A_AC3
Duration : 2h 26mn
Bit rate mode : Constant
Bit rate : 96.0 Kbps
Channel(s) : 1 channel
Channel positions : Front: C
Sampling rate : 48.0 KHz
Bit depth : 16 bits
Compression mode : Lossy
Stream size : 101 MiB (1%)
Title : MVO |Культура|
Language : Russian
Default : Yes
Forced : No
Audio #2
ID : 3
Format : AC-3
Format/Info : Audio Coding 3
Mode extension : CM (complete main)
Codec ID : A_AC3
Duration : 2h 26mn
Bit rate mode : Constant
Bit rate : 96.0 Kbps
Channel(s) : 1 channel
Channel positions : Front: C
Sampling rate : 48.0 KHz
Bit depth : 16 bits
Compression mode : Lossy
Stream size : 101 MiB (1%)
Title : MVO
Language : Russian
Default : No
Forced : No
Audio #3
ID : 4
Format : AC-3
Format/Info : Audio Coding 3
Mode extension : CM (complete main)
Codec ID : A_AC3
Duration : 2h 26mn
Bit rate mode : Constant
Bit rate : 96.0 Kbps
Channel(s) : 1 channel
Channel positions : Front: C
Sampling rate : 48.0 KHz
Bit depth : 16 bits
Compression mode : Lossy
Stream size : 101 MiB (1%)
Title : AVO |Кузнецов|
Language : Russian
Default : No
Forced : No
Audio #4
ID : 6
Format : FLAC
Format/Info : Free Lossless Audio Codec
Codec ID : A_FLAC
Duration : 2h 26mn
Bit rate mode : Variable
Channel(s) : 2 channels
Sampling rate : 48.0 KHz
Bit depth : 16 bits
Writing library : libFLAC 1.2.1 (UTC 2007-09-17)
Language : English
Default : No
Forced : No
Text
ID : 5
Format : UTF-8
Codec ID : S_TEXT/UTF8
Codec ID/Info : UTF-8 Plain Text
Language : English
Default : No
Forced : No
Menu
00:00:00.000 : en:00:00:00.000
00:10:41.766 : en:00:10:41.766
00:20:55.588 : en:00:20:55.588
00:44:37.049 : en:00:44:37.049
00:51:29.878 : en:00:51:29.878
01:05:37.809 : en:01:05:37.809
01:23:44.186 : en:01:23:44.186
01:38:26.109 : en:01:38:26.109
01:49:03.871 : en:01:49:03.871
02:00:31.599 : en:02:00:31.599
02:12:28.816 : en:02:12:28.816
02:21:52.295 : en:02:21:52.295

Скриншоты

EbP vs Source

Критика

Один из лучших женских портретов в истории кино и одна из самых горестных драм одиночества, которым, впрочем, посвящены все фильмы Джона Кассаветиса. Драма назревает там, где для нее нет ровным счетом никаких причин. У Мейбл (Джина Роулендс) трое детей, ухоженный дом, работящий и верный муж-прораб Ник. Беда как раз в том, что Ник слишком работящий, а Мейбл слишком заботлива. И как бы они оба ни старались выкроить в жизни место и время для заслуженного ими праздника, все идет не так. Сверхурочная работа Ника срывает задуманный Мейбл ужин вдвоем, а неловкая попытка исправить ситуацию — он приводит без предупреждения на завтрак дюжину корешей — лишь неумолимо подталкивает Мейбл к нервному срыву, который она сначала глушит, а потом разжигает алкоголем. На экране нет ни одного отрицательного персонажа, все стараются сделать как лучше, а вот, поди ты, ничего, кроме катастроф, благие намерения не приносят.М.Трофименков.....В главной роли опять Джина Роулендс, супруга режиссера и его муза. Тема картины - закономерность освобождения женщины от семейного гнета и необходимость эмансипации. Это кино странное - как бы рваное и несовершенное, несущее все признаки импровизации (снималось практически без сценария и ручной камерой), но от этого ставшее еще более естественным и живым. С прокатом таких картин совсем была беда, режиссер лично пытался их протолкнуть в кинотеатры, но чаще всего безуспешно. Немудрено, что для российского проката его фильмы никогда не покупались.В.Кичин
Other forum [Profile] [PM]
Similar theme
Forum Topic Author Torrent Replies Last Post
./templates/default/images/folder_dl.gif Техническая и научно-популярная литература Игорь Резько | Самая нужная книга для настоящих женщин (2013) [PDF, FB2, RTF] UndegraundMen
1 | 0

0 | 1772

5

2013-10-30 23:11
UndegraundMen Latest
./templates/default/images/folder_dl.gif Современная проза, классика, поэзия Чейз Джеймс Хедли - Ты никогда не знал женщин. Ожерелье Эомальди. Банка с червями [Николай Козий, 2008, 80 kbps, MP3] Omen
1 | 0

0 | 694

0

2016-11-25 01:00
Omen Latest
Display posts from previous:    
Reply to topic

The time now is: Today 09:50

All times are GMT + 3 Hours



You cannot post new topics in this forum
You cannot reply to topics in this forum
You cannot edit your posts in this forum
You cannot delete your posts in this forum
You cannot vote in polls in this forum
You cannot attach files in this forum
You cannot download files in this forum