Today is a free download without charge Download

МЫ. Верим в любовь / W.E. (Мадонна / Madonna) [2011, Великобритания, драма, мелодрама, BDRip 720p] MVO (R5) + Original (Eng) + Subs (Eng)

Reply to topic
 
Author
Message

Omen ®

Longevity: 8 years 5 months

Posts: 181087

Торрент-статистика

Post 20-Jan-2013 20:32

[Quote]

МЫ. Верим в любовь / W.E.

-
-Страна: Великобритания
Студия: Semtex Films
Жанр: драма, мелодрама
Год выпуска: 2011
Продолжительность: 01:58:54--Перевод: Профессиональный (многоголосый закадровый) R5
Cубтитры: английские SDH
Оригинальная аудиодорожка: английский--Режиссер: Мадонна / Madonna
В ролях: Эбби Корниш, Натали Дормер, Кэти МакГрат, Аннабелль Уоллис, Оскар Айзек, Андреа Райзборо, Джеймс Д’Арси, Ричард Койл, Лоуренс Фокс, Джеймс Фокс--Описание: Роман короля Великобритании Эдуарда VIII и американки Уоллис Симпсон взбудоражил общественность. На момент знакомства с принцем Эдуардом Симпсон была замужем, а король, если хотел жениться на ней, должен был отречься от престола. Но даже это не помешало их любви.--imdb | kinopoisk | Сэмпл--Тип релиза: BDRip 720p [W E 2012 BluRay 720p DTS x264-CHD]
Контейнер: MKV
Видео: MPEG-4 AVC / 5122 kbps / 1280x534 / 23,976 fps / 2.40:1 / High Profile 4.1
Аудио: AC3 / 5.1 / 48 kHz / 384kbps / 16 bits |MVO|
Аудио 2: DTS / 5.1 / 48 kHz / 1510 kbps / 24 bits |original|
Формат субтитров: softsub [SRT]

MediaInfo

Общее
Уникальный идентификатор : 221658780152985592867947206846203066559 (0xA6C1ED9F62FF8421A7999C579F6C78BF)
Полное имя : G:\HD\МЫ Верим в любовь.2011.BDRip.(720p).mkv
Формат : Matroska
Версия формата : Version 2
Размер файла : 5,83 Гбайт
Продолжительность : 1 ч. 58 м.
Общий поток : 7014 Кбит/сек
Дата кодирования : UTC 2013-01-20 13:22:54
Программа кодирования : mkvmerge v5.8.0 ('No Sleep / Pillow') built on Sep 2 2012 15:37:04
Библиотека кодирования : libebml v1.2.3 + libmatroska v1.3.0
Видео
Идентификатор : 1
Формат : AVC
Формат/Информация : Advanced Video Codec
Профиль формата : [email protected]
Параметр CABAC формата : Да
Параметр ReFrames формата : 12 кадров
Идентификатор кодека : V_MPEG4/ISO/AVC
Продолжительность : 1 ч. 58 м.
Битрейт : 5122 Кбит/сек
Ширина : 1280 пикселей
Высота : 534 пикселя
Соотношение сторон : 2,40:1
Режим частоты кадров : Постоянный
Частота кадров : 23,976 кадра/сек
Цветовое пространство : YUV
Субдискретизация насыщенности : 4:2:0
Битовая глубина : 8 бит
Тип развёртки : Прогрессивная
Бит/(Пиксели*Кадры) : 0.313
Размер потока : 4,14 Гбайт (71%)
Заголовок : W.E.2012.BluRay.720p.DTS.x264-CHD
Библиотека кодирования : x264 core 120 r2146 bcd41db
Настройки программы : cabac=1 / ref=12 / deblock=1:-3:-3 / analyse=0x3:0x113 / me=umh / subme=10 / psy=1 / psy_rd=1.10:0.15 / mixed_ref=1 / me_range=32 / chroma_me=1 / trellis=2 / 8x8dct=1 / cqm=0 / deadzone=21,11 / fast_pskip=0 / chroma_qp_offset=-2 / threads=12 / sliced_threads=0 / nr=0 / decimate=1 / interlaced=0 / bluray_compat=0 / constrained_intra=0 / bframes=6 / b_pyramid=2 / b_adapt=2 / b_bias=0 / direct=3 / weightb=1 / open_gop=0 / weightp=2 / keyint=250 / keyint_min=23 / scenecut=40 / intra_refresh=0 / rc_lookahead=60 / rc=2pass / mbtree=0 / bitrate=5122 / ratetol=1.0 / qcomp=0.60 / qpmin=0 / qpmax=69 / qpstep=4 / cplxblur=20.0 / qblur=0.5 / vbv_maxrate=40000 / vbv_bufsize=30000 / nal_hrd=none / ip_ratio=1.40 / pb_ratio=1.30 / aq=1:0.80
Язык : English
Default : Да
Forced : Нет
Аудио #1
Идентификатор : 2
Формат : AC-3
Формат/Информация : Audio Coding 3
Расширение режима : CM (complete main)
Параметр Endianness формата : Big
Идентификатор кодека : A_AC3
Продолжительность : 1 ч. 58 м.
Вид битрейта : Постоянный
Битрейт : 384 Кбит/сек
Каналы : 6 каналов
Расположение каналов : Front: L C R, Side: L R, LFE
Частота : 48,0 КГц
Битовая глубина : 16 бит
Метод сжатия : С потерями
Размер потока : 327 Мбайт (5%)
Заголовок : MVO, R5
Язык : Russian
Default : Да
Forced : Нет
Аудио #2
Идентификатор : 3
Формат : DTS
Формат/Информация : Digital Theater Systems
Режим : 16
Параметр Endianness формата : Big
Идентификатор кодека : A_DTS
Продолжительность : 1 ч. 58 м.
Вид битрейта : Постоянный
Битрейт : 1509 Кбит/сек
Каналы : 6 каналов
Расположение каналов : Front: L C R, Side: L R, LFE
Частота : 48,0 КГц
Битовая глубина : 24 бит
Метод сжатия : С потерями
Размер потока : 1,25 Гбайт (22%)
Язык : English
Default : Нет
Forced : Нет
Текст
Идентификатор : 4
Формат : UTF-8
Идентификатор кодека : S_TEXT/UTF8
Идентификатор кодека/Информация : UTF-8 Plain Text
Заголовок : SDH
Язык : English
Default : Нет
Forced : Нет
Меню
00:00:00.000 : :Chapter 01
00:04:10.041 : :Chapter 02
00:07:31.617 : :Chapter 03
00:13:36.315 : :Chapter 04
00:20:27.351 : :Chapter 05
00:27:49.751 : :Chapter 06
00:34:34.363 : :Chapter 07
00:42:07.358 : :Chapter 08
00:49:47.150 : :Chapter 09
00:55:22.819 : :Chapter 10
01:01:25.515 : :Chapter 11
01:04:54.807 : :Chapter 12
01:13:50.759 : :Chapter 13
01:22:21.770 : :Chapter 14
01:30:13.658 : :Chapter 15
01:35:14.875 : :Chapter 16
01:42:34.940 : :Chapter 17
01:47:54.301 : :Chapter 18
01:50:23.908 : :Chapter 19
01:53:15.371 : :Chapter 20

Скриншоты


Other forum [Profile] [PM]
Display posts from previous:    
Reply to topic

The time now is: Today 04:55

All times are GMT + 3 Hours



You cannot post new topics in this forum
You cannot reply to topics in this forum
You cannot edit your posts in this forum
You cannot delete your posts in this forum
You cannot vote in polls in this forum
You cannot attach files in this forum
You cannot download files in this forum