Today is a free download without charge Download

Мария-Антуанетта / Marie Antoinette (София Коппола / Sofia Coppola) [2006, США, Франция, Япония, драма, биография, история, BDRip 720p] MVO (R5) + AVO (Немахов) + Original + subs (Rus, Eng)

Reply to topic
 
Author
Message

Omen ®

Longevity: 8 years 5 months

Posts: 181087

Торрент-статистика

Post 20-Jan-2013 20:32

[Quote]

Мария-Антуанетта / Marie Antoinette- Год выпуска: 2006
Страна: США, Франция, Япония
Жанр: драма, биография, история
Продолжительность: 02:02:35
Перевод 1: Профессиональный (многоголосый, закадровый) R5
Перевод 2: Авторский одноголосый Ю.Немахов
Оригинальная звуковая дорожка: English
Cубтитры: Русские, английские-Режиссер: София Коппола / Sofia Coppola
В ролях: Кирстен Данст, Джейсон Шварцман, Джуди Дэвис, Рип Торн, Роуз Бирн, Азия Ардженто, Молли Шеннон, Ширли Хендерсон, Дэнни Хьюстон, Марианна Фэйтфулл
Описание: Блестящая и трагическая судьба французской королевы Марии-Антуанетты будет всегда изумлять и ужасать потомков. Беззаботное детство в семье отца, императора Австрии. Ранний брак в 15 лет — и с кем! — с наследником самого Людовика XV! Вступление на французский трон в 19 и полная бесконечных развлечений молодость среди роскоши Версаля. И, наконец, внезапная, ужасная смерть на гильотине под улюлюканье парижской черни. Историки говорят, что Мария-Антуанетта поплатилась головой за то, что ненавидела и не понимала простой народ. Но тогда придется признать, что эта остроумная и незаурядная женщина была примитивной стервой! У авторов данного фильма есть другая версия, которая призвана пролить свет на все темные места биографии самой знаменитой королевы в истории Франции…-Релиз: by Skoped
Формат: MKV
Видео: 1280x720 at 24.000 fps (True24p), [email protected], crf, ~9565 kbps avg
Аудио #1: Russian: 48 kHz, AC3, 3/2 (L,C,R,l,r) + LFE ch, ~448.00 kbps avg |Многоголосый закадровый, R5|
Аудио #2: Russian: 48 kHz, DTS, 3/2 (L,C,R,l,r) + LFE ch, ~1510.00 kbps avg |Одноголосый закадровый, Ю.Немахов|
Аудио #3: English: 48 kHz, DTS, 3/2 (L,C,R,l,r) + LFE ch, ~1510.00 kbps avg
Семпл-

Source~Encode





-

MInfo


Формат : Matroska
Версия формата : Version 2
Размер файла : 11,3 Гбайт
Продолжительность : 2 ч. 2 м.
Общий поток : 13,2 Мбит/сек
Название фильма : Marie Antoinette (2006) - Release for HDCLUB
Дата кодирования : UTC 2013-01-19 12:14:15
Программа кодирования : mkvmerge v3.4.0 ('Rapunzel') сборка от May 15 2010 09:38:20
Библиотека кодирования : libebml v0.8.0 + libmatroska v0.9.0
Видео
Идентификатор : 1
Формат : AVC
Формат/Информация : Advanced Video Codec
Профиль формата : [email protected]
Параметр CABAC формата : Да
Параметр ReFrames формата : 9 кадров
Идентификатор кодека : V_MPEG4/ISO/AVC
Продолжительность : 2 ч. 2 м.
Битрейт : 9510 Кбит/сек
Ширина : 1280 пикселей
Высота : 720 пикселей
Соотношение сторон : 16:9
Режим частоты кадров : Постоянный
Частота кадров : 24,000 кадра/сек
Цветовое пространство : YUV
Субдискретизация насыщенности : 4:2:0
Битовая глубина : 8 бит
Тип развёртки : Прогрессивная
Бит/(Пиксели*Кадры) : 0.430
Размер потока : 8,14 Гбайт (72%)
Заголовок : Release for HDCLUB
Библиотека кодирования : x264 core 129 r2230 1cffe9f
Настройки программы : cabac=1 / ref=9 / deblock=1:-3:-3 / analyse=0x3:0x113 / me=tesa / subme=9 / psy=1 / psy_rd=1.05:0.00 / mixed_ref=1 / me_range=16 / chroma_me=1 / trellis=2 / 8x8dct=1 / cqm=0 / deadzone=21,11 / fast_pskip=0 / chroma_qp_offset=-2 / threads=6 / lookahead_threads=1 / sliced_threads=0 / nr=0 / decimate=0 / interlaced=0 / bluray_compat=0 / constrained_intra=0 / bframes=8 / b_pyramid=2 / b_adapt=2 / b_bias=0 / direct=3 / weightb=1 / open_gop=0 / weightp=2 / keyint=250 / keyint_min=24 / scenecut=40 / intra_refresh=0 / rc=crf / mbtree=0 / crf=15.5 / qcomp=0.70 / qpmin=0 / qpmax=69 / qpstep=4 / ip_ratio=1.40 / pb_ratio=1.30 / aq=1:0.50
Язык : English
Default : Нет
Forced : Нет
Коэффициенты матрицы : BT.709
Аудио #1
Идентификатор : 2
Формат : AC-3
Формат/Информация : Audio Coding 3
Расширение режима : CM (complete main)
Параметр Endianness формата : Big
Идентификатор кодека : A_AC3
Продолжительность : 2 ч. 2 м.
Вид битрейта : Постоянный
Битрейт : 448 Кбит/сек
Каналы : 6 каналов
Расположение каналов : Front: L C R, Side: L R, LFE
Частота : 48,0 КГц
Битовая глубина : 16 бит
Метод сжатия : С потерями
Размер потока : 393 Мбайт (3%)
Заголовок : Многоголосый закадровый, R5
Язык : Russian
Default : Да
Forced : Нет
Аудио #2
Идентификатор : 3
Формат : DTS
Формат/Информация : Digital Theater Systems
Режим : 16
Параметр Endianness формата : Big
Идентификатор кодека : A_DTS
Продолжительность : 2 ч. 2 м.
Вид битрейта : Постоянный
Битрейт : 1509 Кбит/сек
Каналы : 6 каналов
Расположение каналов : Front: L C R, Side: L R, LFE
Частота : 48,0 КГц
Битовая глубина : 16 бит
Метод сжатия : С потерями
Размер потока : 1,29 Гбайт (11%)
Заголовок : Одноголосый закадровый, Ю.Немахов
Язык : Russian
Default : Нет
Forced : Нет
Аудио #3
Идентификатор : 4
Формат : DTS
Формат/Информация : Digital Theater Systems
Режим : 16
Параметр Endianness формата : Big
Идентификатор кодека : A_DTS
Продолжительность : 2 ч. 2 м.
Вид битрейта : Постоянный
Битрейт : 1509 Кбит/сек
Каналы : 6 каналов
Расположение каналов : Front: L C R, Side: L R, LFE
Частота : 48,0 КГц
Битовая глубина : 16 бит
Метод сжатия : С потерями
Размер потока : 1,29 Гбайт (11%)
Язык : English
Default : Нет
Forced : Нет
Текст #1
Идентификатор : 5
Формат : UTF-8
Идентификатор кодека : S_TEXT/UTF8
Идентификатор кодека/Информация : UTF-8 Plain Text
Заголовок : Russian
Язык : Russian
Default : Нет
Forced : Нет
Текст #2
Идентификатор : 6
Формат : UTF-8
Идентификатор кодека : S_TEXT/UTF8
Идентификатор кодека/Информация : UTF-8 Plain Text
Заголовок : English
Язык : English
Default : Нет
Forced : Нет
Текст #3
Идентификатор : 7
Формат : UTF-8
Идентификатор кодека : S_TEXT/UTF8
Идентификатор кодека/Информация : UTF-8 Plain Text
Заголовок : French
Язык : French
Default : Нет
Forced : Нет
Меню
00:00:00.000 : en:00:00:00.000
00:02:10.292 : en:00:02:10.292
00:08:07.875 : en:00:08:07.875
00:16:57.083 : en:00:16:57.083
00:22:48.083 : en:00:22:48.083
00:27:51.500 : en:00:27:51.500
00:35:47.083 : en:00:35:47.083
00:43:02.500 : en:00:43:02.500
00:50:29.375 : en:00:50:29.375
00:55:32.167 : en:00:55:32.167
01:05:12.292 : en:01:05:12.292
01:12:12.625 : en:01:12:12.625
01:18:35.583 : en:01:18:35.583
01:26:05.708 : en:01:26:05.708
01:29:13.667 : en:01:29:13.667
01:38:48.375 : en:01:38:48.375
01:44:02.333 : en:01:44:02.333
01:49:09.750 : en:01:49:09.750
01:52:30.625 : en:01:52:30.625
01:55:32.083 : en:01:55:32.083

-
Цитата:

*** За исходный французский Blu-ray спасибо Loki1982.
*** За ремукс спасибо doclogan.
*** Сохранены оригинальные чаптеры как на Blu-ray.
Other forum [Profile] [PM]
Similar theme
Forum Topic Author Torrent Replies Last Post
./templates/default/images/folder_dl.gif Техническая и научно-популярная литература Де Агостини | Самый сокровенный секрет материи. Мария Кюри. Радиоактивность и элементы (Наука. Величайшие теории Т. 10) (2015) [PDF] Omen
1 | 0

0 | 529

3

2015-03-18 16:21
Omen Latest
Display posts from previous:    
Reply to topic

The time now is: Today 04:54

All times are GMT + 3 Hours



You cannot post new topics in this forum
You cannot reply to topics in this forum
You cannot edit your posts in this forum
You cannot delete your posts in this forum
You cannot vote in polls in this forum
You cannot attach files in this forum
You cannot download files in this forum