Today is a free download without charge Download

300 спартанцев / 300 (Зак Снайдер / Zack Snyder) [2006, США, фэнтези, боевик, военный, история, BDRip 720p] Dub + DVO (Гланц и Королева) + AVO (Рябов) + Original Eng + Sub Rus Eng

Reply to topic
 
Author
Message

Omen ®

Longevity: 8 years 5 months

Posts: 181087

Торрент-статистика

Post 20-Jan-2013 20:32

[Quote]

300 спартанцев / 300«Обрети славу!»- Страна: США
Студия: Warner Bros. Pictures, Virtual Studios, Legendary Pictures
Жанр: фэнтези, боевик, военный, история
Год выпуска: 2006
Продолжительность: 01:56:33-Перевод:
1. Профессиональный (дублированный)
2. Профессиональный (двухголосый закадровый) :: П. Гланц и И. Королева
3. Авторский (одноголосый) :: С. Рябов
Оригинальная аудиодорожка: английский
Cубтитры: русские, английские
Навигация по главам: есть-Режиссер: Зак Снайдер / Zack Snyder
В ролях: Джерард Батлер, Майкл Фассбендер, Винсент Риган, Дэвид Уэнэм, Лена Хиди, Доминик Уэст, Том Уисдом, Эндрю Плевин, Эндрю Тирнан, Родриго Санторо, Джованни Симмино, Стивен МакХэтти
Описание: События картины повествуют о кровопролитной битве при Фермопилах в 480 году до н. э., в которой триста отважных спартанцев во главе со своим царем Леонидом преградили путь многотысячной армии персидского царя Ксеркса.
Несмотря на численный перевес персов, спартанцы продолжали упорную оборону, проявив мужество и отвагу. Их бесстрашие и героизм вдохновили всю Грецию на объединение против непобедимого врага, переломив тем самым ход Греко-персидских войн…-Доп. информация:
Бюджет: $65 000 000
Сборы в мире: $456 068 181
Премьера: 09 декабря 2006 года
Возрастные ограничения: 16+
Рейтинг MPAA: R (лицам до 17 лет обязательно присутствие взрослого)
IMDB: 7.7 (370 341)
Кинопоиск: 7.647 (67 716)-Сэмпл: multi-up.com
Исходник: Blu-ray
Тип релиза: BDRip 720p
Контейнер: MKV
Видео: 1280x534 (2.397:1), 23.976 fps, ~4450 kbps, 0.272 bpp
Аудио 1: Русский 48 kHz, AC3 5.1, 448 kbps :: Дублированный
Аудио 2: Русский 48 kHz, AC3 5.1, 448 kbps :: Двухголосый (Гланц и Королева)
Аудио 3: Русский 48 kHz, AC3 5.1, 448 kbps :: Одноголосый (Рябов)
Аудио 4: Английский 48 kHz, AC3 5.1, 640 Kbps
Субтитры 1: Русские
Субтитры 2: Английские
Формат субтитров: softsub (SRT)
Размер: Поместится на DVD5 с двумя дорожками AC3 448kbps.

x264

x264 [info]: 1280x534p 801:800 @ 24000/1001 fps (cfr)
x264 [info]: using SAR=801/800
x264 [info]: using cpu capabilities: MMX2 SSE2Fast SSSE3 FastShuffle SSE4.2 AVX
x264 [info]: profile High, level 4.1
x264 [info]: cabac=1 ref=11 deblock=1:-2:-1 analyse=0x3:0x113 me=umh subme=9 psy=1 fade_compensate=0.00 psy_rd=1.00:0.00 mixed_ref=1 me_range=32 chroma_me=1 trellis=2 8x8dct=1 cqm=0 deadzone=21,11 fast_pskip=0 chroma_qp_offset=-2 threads=4 lookahead_threads=1 sliced_threads=0 nr=0 decimate=0 interlaced=0 bluray_compat=0 constrained_intra=0 bframes=11 b_pyramid=2 b_adapt=2 b_bias=0 direct=3 weightb=1 open_gop=0 weightp=2 keyint=250 keyint_min=23 scenecut=40 intra_refresh=0 rc_lookahead=0 rc=2pass mbtree=0 bitrate=4450 ratetol=1.0 qcomp=0.70 qpmin=0 qpmax=51 qpstep=4 cplxblur=20.0 qblur=0.5 vbv_maxrate=50000 vbv_bufsize=62500 nal_hrd=none ip_ratio=1.35 pb_ratio=1.25 aq=1:0.70
x264 [info]: frame I:1182 Avg QP:18.64 size: 93498
x264 [info]: frame P:32957 Avg QP:21.17 size: 37423
x264 [info]: frame B:133515 Avg QP:23.54 size: 19070
x264 [info]: consecutive B-frames: 1.5% 1.4% 4.9% 19.5% 17.1% 33.0% 8.4% 6.1% 2.5% 3.1% 1.3% 1.2%
x264 [info]: mb I I16..4: 13.8% 73.5% 12.8%
x264 [info]: mb P I16..4: 3.9% 13.5% 1.2% P16..4: 34.7% 22.8% 11.5% 0.0% 0.0% skip:12.5%
x264 [info]: mb B I16..4: 0.2% 1.8% 0.1% B16..8: 39.2% 12.1% 3.9% direct: 8.9% skip:33.8% L0:43.9% L1:45.6% BI:10.5%
x264 [info]: 8x8 transform intra:76.1% inter:60.8%
x264 [info]: direct mvs spatial:98.1% temporal:1.9%
x264 [info]: coded y,uvDC,uvAC intra: 77.2% 56.8% 26.0% inter: 37.6% 15.7% 3.1%
x264 [info]: i16 v,h,dc,p: 76% 12% 6% 6%
x264 [info]: i8 v,h,dc,ddl,ddr,vr,hd,vl,hu: 10% 7% 8% 10% 14% 13% 14% 10% 13%
x264 [info]: i4 v,h,dc,ddl,ddr,vr,hd,vl,hu: 13% 6% 6% 9% 15% 13% 14% 11% 14%
x264 [info]: i8c dc,h,v,p: 45% 27% 16% 12%
x264 [info]: Weighted P-Frames: Y:12.2% UV:7.1%
x264 [info]: ref P L0: 45.9% 7.6% 16.6% 8.2% 6.0% 4.6% 3.7% 2.3% 1.9% 1.6% 1.2% 0.2% 0.0%
x264 [info]: ref B L0: 69.8% 13.5% 6.3% 3.3% 2.4% 1.8% 1.5% 0.9% 0.5% 0.2%
x264 [info]: ref B L1: 91.6% 8.4%
x264 [info]: kb/s:4450.45

MediaInfo

General
Unique ID : 238129998865255325490981552723593383976 (0xB3262B677125AF6D8EDA2BB137A1D028)
Complete name : E:\Video\films\300 спартанцев (300) (1).mkv
Format : Matroska
Format version : Version 4 / Version 2
File size : 5.24 GiB
Duration : 1h 56mn
Overall bit rate : 6 432 Kbps
Movie name : 300 (2006)
Encoded date : UTC 2010-02-22 21:41:31
Writing application : mkvmerge v5.9.0 ('On The Loose') built on Dec 9 2012 15:37:01
Writing library : libebml v1.3.0 + libmatroska v1.4.0
Video
ID : 1
Format : AVC
Format/Info : Advanced Video Codec
Format profile : [email protected]
Format settings, CABAC : Yes
Format settings, ReFrames : 11 frames
Codec ID : V_MPEG4/ISO/AVC
Duration : 1h 56mn
Bit rate : 4 450 Kbps
Width : 1 280 pixels
Height : 534 pixels
Display aspect ratio : 2.40:1
Original display aspect ratio : 2.40:1
Frame rate mode : Constant
Frame rate : 23.976 fps
Color space : YUV
Chroma subsampling : 4:2:0
Bit depth : 8 bits
Scan type : Progressive
Bits/(Pixel*Frame) : 0.272
Stream size : 3.52 GiB (67%)
Title : 300 (2006)
Writing library : x264 core 129 r2230kMod 1cffe9f
Encoding settings : cabac=1 / ref=11 / deblock=1:-2:-1 / analyse=0x3:0x113 / me=umh / subme=9 / psy=1 / fade_compensate=0.00 / psy_rd=1.00:0.00 / mixed_ref=1 / me_range=32 / chroma_me=1 / trellis=2 / 8x8dct=1 / cqm=0 / deadzone=21,11 / fast_pskip=0 / chroma_qp_offset=-2 / threads=4 / lookahead_threads=1 / sliced_threads=0 / nr=0 / decimate=0 / interlaced=0 / bluray_compat=0 / constrained_intra=0 / bframes=11 / b_pyramid=2 / b_adapt=2 / b_bias=0 / direct=3 / weightb=1 / open_gop=0 / weightp=2 / keyint=250 / keyint_min=23 / scenecut=40 / intra_refresh=0 / rc_lookahead=0 / rc=2pass / mbtree=0 / bitrate=4450 / ratetol=1.0 / qcomp=0.70 / qpmin=0 / qpmax=51 / qpstep=4 / cplxblur=20.0 / qblur=0.5 / vbv_maxrate=50000 / vbv_bufsize=62500 / nal_hrd=none / ip_ratio=1.35 / pb_ratio=1.25 / aq=1:0.70
Language : English
Default : Yes
Forced : No
Matrix coefficients : BT.709
Audio #1
ID : 2
Format : AC-3
Format/Info : Audio Coding 3
Mode extension : CM (complete main)
Format settings, Endianness : Big
Codec ID : A_AC3
Duration : 1h 56mn
Bit rate mode : Constant
Bit rate : 448 Kbps
Channel(s) : 6 channels
Channel positions : Front: L C R, Side: L R, LFE
Sampling rate : 48.0 KHz
Bit depth : 16 bits
Compression mode : Lossy
Stream size : 374 MiB (7%)
Title : Дублированный
Language : Russian
Default : Yes
Forced : No
Audio #2
ID : 3
Format : AC-3
Format/Info : Audio Coding 3
Mode extension : CM (complete main)
Format settings, Endianness : Big
Codec ID : A_AC3
Duration : 1h 56mn
Bit rate mode : Constant
Bit rate : 448 Kbps
Channel(s) : 6 channels
Channel positions : Front: L C R, Side: L R, LFE
Sampling rate : 48.0 KHz
Bit depth : 16 bits
Compression mode : Lossy
Stream size : 374 MiB (7%)
Title : Двухголосый (Гланц и Королева)
Language : Russian
Default : No
Forced : No
Audio #3
ID : 4
Format : AC-3
Format/Info : Audio Coding 3
Mode extension : CM (complete main)
Format settings, Endianness : Big
Codec ID : A_AC3
Duration : 1h 56mn
Bit rate mode : Constant
Bit rate : 448 Kbps
Channel(s) : 6 channels
Channel positions : Front: L C R, Side: L R, LFE
Sampling rate : 48.0 KHz
Bit depth : 16 bits
Compression mode : Lossy
Stream size : 374 MiB (7%)
Title : Одноголосый (Рябов)
Language : Russian
Default : No
Forced : No
Audio #4
ID : 5
Format : AC-3
Format/Info : Audio Coding 3
Mode extension : CM (complete main)
Format settings, Endianness : Big
Codec ID : A_AC3
Duration : 1h 56mn
Bit rate mode : Constant
Bit rate : 640 Kbps
Channel(s) : 6 channels
Channel positions : Front: L C R, Side: L R, LFE
Sampling rate : 48.0 KHz
Bit depth : 16 bits
Compression mode : Lossy
Stream size : 534 MiB (10%)
Title : Английский
Language : English
Default : No
Forced : No
Text #1
ID : 6
Format : UTF-8
Codec ID : S_TEXT/UTF8
Codec ID/Info : UTF-8 Plain Text
Language : Russian
Default : No
Forced : No
Text #2
ID : 7
Format : UTF-8
Codec ID : S_TEXT/UTF8
Codec ID/Info : UTF-8 Plain Text
Language : English
Default : No
Forced : No
Menu
00:00:00.000 : en:01. Spartan Education
00:05:16.983 : en:02. Messenger From Persia
00:10:23.289 : en:03. Sparta's Reply
00:13:16.796 : en:04. The Ephors
00:16:52.177 : en:05. The Oracle
00:19:44.349 : en:06. What Should a Free Man Do?
00:22:28.347 : en:07. With or on Your Shield
00:27:03.621 : en:08. More Soldiers Than You
00:29:16.254 : en:09. Hunters of Men's Souls
00:33:17.829 : en:10. Glorious Rain
00:35:06.771 : en:11. Fraction of the Monster
00:37:49.433 : en:12. Wall of the Dead
00:40:46.277 : en:13. Ephialtes' Request
00:44:10.314 : en:14. Hot Gates Battle
00:49:17.287 : en:15. Today No Spartan Dies
00:52:46.329 : en:16. Make Theron Your Ally
00:55:33.663 : en:17. Meeting Xerxes
01:01:40.863 : en:18. Immortals Put to the Test
01:05:20.750 : en:19. Uber Immortal's Fall
01:08:42.952 : en:20. Numbers Count for Nothing
01:12:43.192 : en:21. Blood-Drunk
01:15:50.379 : en:22. Betrayer's Bargain
01:18:38.380 : en:23. Queen's Bargain
01:22:20.936 : en:24. Prepare for Glory
01:26:43.531 : en:25. Tell Them Our Story
01:29:11.512 : en:26. Trickster in True Form
01:33:59.216 : en:27. Victory in Surrender
01:38:54.595 : en:28. Fallen Heroes
01:43:26.200 : en:29. Go Tell the Spartans
01:49:03.537 : en:30. End Credits

Скриншоты

Source (vs. BDRip / screenshotcomparison.com) BDRip HD-DVD Rip [GarryTom] (vs. BDRip / screenshotcomparison.com) -BDRip vs. BDRip [HiDt]
Цитата:
Отличия от раздачи GarryTom'a.1. Пропорции ближе к оригиналу (AR error 0.12%), дополнительные пару пикселей слева и справа.
2. Все четыре звуковые дорожки в одном контейнере. Выше качество дубляжа (384 vs. 448kbps), плюс есть двухголосый перевод "Гланц и Королева" и одноголосый Рябова.
3. Присутствуют английские субтитры и навигация по главам.
Other forum [Profile] [PM]
Display posts from previous:    
Reply to topic

The time now is: Today 01:40

All times are GMT + 3 Hours



You cannot post new topics in this forum
You cannot reply to topics in this forum
You cannot edit your posts in this forum
You cannot delete your posts in this forum
You cannot vote in polls in this forum
You cannot attach files in this forum
You cannot download files in this forum