Today is a free download without charge Download

Бар «Гадкий койот» / Coyote Ugly (Дэвид МакНэлли / David McNally) [2000, США, драма, мелодрама, комедия, музыка, BDRip 720p] [Unrated] Dub + AVO (Живов) + Original + subs (Rus, Eng)

Reply to topic
 
Author
Message

Omen ®

Longevity: 8 years 5 months

Posts: 181087

Торрент-статистика

Post 20-Jan-2013 20:32

[Quote]

Бар «Гадкий койот» / Coyote Ugly [Unrated]- Год выпуска: 2000
Страна: США
Жанр: драма, мелодрама, комедия, музыка
Продолжительность: 01:47:30
Перевод 1: Профессиональный (дублированный) со вставками на unrated-эпизоды перевода Ю.Живова
Перевод 2: Авторский одноголосый Ю.Живов
Оригинальная звуковая дорожка: English
Cубтитры: Russian, English-Режиссер: Дэвид МакНэлли / David McNally
В ролях: Пайпер Перабо, Адам Гарсиа, Джон Гудман, Мария Белло, Изабелла Мико, Тайра Бэнкс, Бриджет Мойнэан, Мелани Лински, Дел Пентекост, Майкл Уэстон, ЛиЭнн Раймс, Джереми Роули, Эллен Клегхорн, John Fugelsang, Бад Корт, Robert Ahlers, Орландо Симс, Бэрри Майкл Дафф, Уильям Риттер III, Чандра Бэйли, Freez Luv
Описание: Вайолет всю жизнь прожила на окраине и мечтала стать певицей. Но ее никогда не покидал страх перед освещенной сценой и шумной толпой. Наконец, мечта привела ее в Нью-Йорк, где Вайолет устроилась на работу официанткой в знаменитый бар «Гадкий Койот», где правят бал только красивые и решительные.
В обществе неотразимых красавиц, чьи манеры пугают ханжей и привлекают мужчин, Вайолет должна преодолеть природную застенчивость и услышать собственный голос.-Релиз: by delia
Формат: MKV
Видео: 1280x534 at 23.976 fps, [email protected], ~6555 kbps avg
Аудио #1: Russian: 48 kHz, AC3, 2/0 (L,R) ch, ~192.00 kbps avg |Дубляж, R5|
Аудио #2: Russian: 48 kHz, DTS, 3/2 (L,C,R,l,r) + LFE ch, ~1536.00 kbps avg |Одноголосый закадровый, Ю.Живов|
Аудио #3: English: 48 kHz, DTS, 3/2 (L,C,R,l,r) + LFE ch, ~1536.00 kbps avg
Семпл-

Source~Encode





-

MInfo


Format : Matroska
Format version : Version 4 / Version 2
File size : 7.42 GiB
Duration : 1h 47mn
Overall bit rate : 9 877 Kbps
Encoded date : UTC 2010-02-22 21:41:31
Writing application : mkvmerge v5.9.0 ('On The Loose') built on Dec 9 2012 15:37:01
Writing library : libebml v1.3.0 + libmatroska v1.4.0
Video
ID : 1
Format : AVC
Format/Info : Advanced Video Codec
Format profile : [email protected]
Format settings, CABAC : Yes
Format settings, ReFrames : 10 frames
Codec ID : V_MPEG4/ISO/AVC
Duration : 1h 47mn
Bit rate : 6 667 Kbps
Width : 1 280 pixels
Height : 534 pixels
Display aspect ratio : 2.40:1
Frame rate : 23.976 fps
Color space : YUV
Chroma subsampling : 4:2:0
Bit depth : 8 bits
Scan type : Progressive
Bits/(Pixel*Frame) : 0.407
Stream size : 4.86 GiB (65%)
Writing library : x264 core 129 r2245kMod bc13772
Encoding settings : cabac=1 / ref=10 / deblock=1:-3:-3 / analyse=0x3:0x113 / me=tesa / subme=11 / psy=1 / fade_compensate=0.00 / psy_rd=1.05:0.05 / mixed_ref=1 / me_range=48 / chroma_me=1 / trellis=2 / 8x8dct=1 / cqm=0 / deadzone=21,11 / fast_pskip=0 / chroma_qp_offset=-3 / threads=6 / lookahead_threads=1 / sliced_threads=0 / nr=0 / decimate=1 / interlaced=0 / bluray_compat=0 / constrained_intra=0 / bframes=10 / b_pyramid=2 / b_adapt=2 / b_bias=0 / direct=3 / weightb=1 / open_gop=0 / weightp=2 / keyint=250 / keyint_min=23 / scenecut=40 / intra_refresh=0 / rc=2pass / mbtree=0 / bitrate=6667 / ratetol=1.0 / qcomp=0.75 / qpmin=0 / qpmax=69 / qpstep=4 / cplxblur=20.0 / qblur=0.5 / ip_ratio=1.40 / pb_ratio=1.30 / aq=3:0.80
Language : English
Default : Yes
Forced : No
Matrix coefficients : BT.709-5, BT.1361, IEC 61966-2-4 709, SMPTE RP177
Audio #1
ID : 2
Format : AC-3
Format/Info : Audio Coding 3
Mode extension : CM (complete main)
Codec ID : A_AC3
Duration : 1h 47mn
Bit rate mode : Constant
Bit rate : 192 Kbps
Channel(s) : 2 channels
Channel positions : Front: L R
Sampling rate : 48.0 KHz
Bit depth : 16 bits
Compression mode : Lossy
Stream size : 148 MiB (2%)
Title : Дубляж, R5
Language : Russian
Default : Yes
Forced : No
Audio #2
ID : 3
Format : DTS
Format/Info : Digital Theater Systems
Codec ID : A_DTS
Duration : 1h 47mn
Bit rate mode : Constant
Bit rate : 1 510 Kbps
Channel(s) : 6 channels
Channel positions : Front: L C R, Side: L R, LFE
Sampling rate : 48.0 KHz
Bit depth : 16 bits
Compression mode : Lossy
Stream size : 1.13 GiB (15%)
Title : AVO. Ю.Живов
Language : Russian
Default : No
Forced : No
Audio #3
ID : 4
Format : DTS
Format/Info : Digital Theater Systems
Codec ID : A_DTS
Duration : 1h 47mn
Bit rate mode : Constant
Bit rate : 1 510 Kbps
Channel(s) : 6 channels
Channel positions : Front: L C R, Side: L R, LFE
Sampling rate : 48.0 KHz
Bit depth : 16 bits
Compression mode : Lossy
Stream size : 1.13 GiB (15%)
Language : English
Default : No
Forced : No
Text #1
ID : 5
Format : UTF-8
Codec ID : S_TEXT/UTF8
Codec ID/Info : UTF-8 Plain Text
Language : Russian
Default : No
Forced : No
Text #2
ID : 6
Format : UTF-8
Codec ID : S_TEXT/UTF8
Codec ID/Info : UTF-8 Plain Text
Language : English
Default : No
Forced : No
Menu
00:00:00.000 : en:00:00:00.000
00:09:18.848 : en:00:09:18.848
00:18:09.922 : en:00:18:09.922
00:23:01.296 : en:00:23:01.296
00:33:24.919 : en:00:33:24.919
00:37:08.184 : en:00:37:08.184
00:38:54.415 : en:00:38:54.415
00:42:53.487 : en:00:42:53.487
00:50:03.583 : en:00:50:03.583
00:56:15.830 : en:00:56:15.830
01:03:57.792 : en:01:03:57.792
01:07:06.981 : en:01:07:06.981
01:18:42.216 : en:01:18:42.216
01:20:50.887 : en:01:20:50.887
01:21:05.360 : en:01:21:05.360
01:23:14.698 : en:01:23:14.698
01:29:54.972 : en:01:29:54.972
01:35:01.362 : en:01:35:01.362
01:38:27.693 : en:01:38:27.693
01:42:03.534 : en:01:42:03.534

-
Цитата:

*** Сохранены оригинальные чаптеры как на Blu-ray.
*** За дубляж спасибо zim2001. Поправил 2 косячка и сделал вставки с переводом Юрия Живова.
*** Дорожка №2 получена наложением чистого голоса на центр декодированного LPCM.
*** За подготовку русских субтитров больше спасибо Lesnick. Текст по дубляжу, для расширенных сцен набиты по переводу Юрия Живова.
Other forum [Profile] [PM]
Display posts from previous:    
Reply to topic

The time now is: Today 11:02

All times are GMT + 3 Hours



You cannot post new topics in this forum
You cannot reply to topics in this forum
You cannot edit your posts in this forum
You cannot delete your posts in this forum
You cannot vote in polls in this forum
You cannot attach files in this forum
You cannot download files in this forum