Today is a free download without charge Download

M - Mojo [2012, Pop-Rock, HDTV 1080i]

Reply to topic
 
Author
Message

Omen ®

Longevity: 8 years 3 months

Posts: 181087

Торрент-статистика

Post 20-Jan-2013 16:24

[Quote]

M - Mojo
Жанр: Pop-Rock
Продолжительность: 00:03:17
Год выпуска: 2012
Качество: HDTV 1080i
Контейнер: TS
Видео кодек: H.264
Аудио кодек: AC3
Видео: MPEG4 Video (H264) 1920x1080 25fps Bitrate: 7 133 Kbps
Аудио: Dolby AC3 48000Hz 6ch 384kbps

Отчёт MediaInfo / BDInfo

GeneralComplete name : M - Mojo.tsFormat : MPEG-TSFormat profile : No PAT/PMTFile size : 189 MiBDuration : 3mn 16sOverall bit rate : 8 047 Kbps
VideoID : 2020 (0x7E4)Format : AVCFormat/Info : Advanced Video CodecFormat profile : [email protected] settings, CABAC : YesFormat settings, ReFrames : 4 framesFormat settings, GOP : M=8, N=32Duration : 3mn 15sBit rate : 7 133 KbpsWidth : 1 920 pixelsHeight : 1 080 pixelsDisplay aspect ratio : 16:9Frame rate : 25.000 fpsColor space : YUVChroma subsampling : 4:2:0Bit depth : 8 bitsScan type : MBAFFBits/(Pixel*Frame) : 0.138Stream size : 166 MiB (88%)Color primaries : BT.709-5, BT.1361, IEC 61966-2-4, SMPTE RP177Transfer characteristics : BT.709-5, BT.1361Matrix coefficients : BT.709-5, BT.1361, IEC 61966-2-4 709, SMPTE RP177
Audio #1ID : 2021 (0x7E5)Format : AC-3Format/Info : Audio Coding 3Mode extension : CM (complete main)Duration : 3mn 16sBit rate mode : ConstantBit rate : 384 KbpsChannel(s) : 6 channelsChannel positions : Front: L C R, Side: L R, LFESampling rate : 48.0 KHzBit depth : 16 bitsCompression mode : LossyDelay relative to video : -656msStream size : 9.00 MiB (5%)
Audio #2ID : 2022 (0x7E6)Format : AC-3Format/Info : Audio Coding 3Mode extension : CM (complete main)Duration : 3mn 16sBit rate mode : ConstantBit rate : 128 KbpsChannel(s) : 2 channelsChannel positions : Front: L RSampling rate : 48.0 KHzBit depth : 16 bitsCompression mode : LossyDelay relative to video : -498msStream size : 3.00 MiB (2%)

Скриншоты

Other forum [Profile] [PM]
Display posts from previous:    
Reply to topic

The time now is: Today 22:48

All times are GMT + 3 Hours



You cannot post new topics in this forum
You cannot reply to topics in this forum
You cannot edit your posts in this forum
You cannot delete your posts in this forum
You cannot vote in polls in this forum
You cannot attach files in this forum
You cannot download files in this forum