Today is a free download without charge Download

Универ. Новая общага (сезон 4, серия 1-8(54-61)) (Константин Смирнов / Максим Зыков) (2013) WEBRip [Обновляемая]

Reply to topic
 
Author
Message

kiryandr ®

Gender:

Longevity: 9 years

Posts: 81

Торрент-статистика

Post 20-Jan-2013 15:27

[Quote]

Универ. Новая общага сезон 4- Русское название: Универ. Новая общага. Сплит
Год выпуска: 2013
Выпущено: Россия
Жанр: Комедия
Режиссер: Константин Смирнов / Максим Зыков
Актеры: Виталий Гогунский, Арарат Кещян, Станислав Ярушин, Анна Кузина, Настасья Самбурская, Анна Хилькевич, Владимир Фекленко, Елена Валюшкина, Андрей Лебедев, Сергей Пиоро
Описание фильма:
В новом сезоне Универ новая общага, наших героев ждет еще больше разных приключений. Артур наконец то созблазнил второй раз Ксению Андреевну "Гаргалыгу", и распахнула перед ним двери своей уютной квартирки, но не все так просто оказалось. Есть два обстоятельства, которые мешают Майклу спокойно расслабляться: кот и храп. Причем оба принадлежат Ксении Андреевне… Яна брошенная Олегом играть в любовь некогда да и не с кем, она решила "бросить" себя в предвыборную гонку на председателя профкома.
Антон и Кристина по-прежнему в ссоре. Ребята переживают за скандальную парочку. Кузя разбил плазму и пытается взять кредит в банке на новую. Но в итоге решает просто забрать плазму из холла универа. А Майкл пришел в гости к Ксении и случайно выбросил за окно ее кота. Теперь ему придется разыскать бедное животное…

Продолжительность: Каждая серия х 00:25:00
Видеокодек: XivD
Битрейт видео: 1468 Кбит/с
Размер кадра: 720х400
Качество видео: WEBRip
Аудиокодек: MP3, 2 ch
Битрейт аудио: 128 Кбит/с

Раздача ведётся путём добавления новых серий

Раздача ведётся путём добавления новых серий; при каждом добавлении создаётся новый торрент. Чтобы начать докачку новой серии, пользователям необходимо сделать следующее:
(1) остановить скачивание,
(2) удалить старый торрент у себя из клиента (старые серии удалять не надо),
(3) скачать новый торрент и запустить его у себя в клиенте вместо старого, при этом указать клиенту путь в старую папку куда и должно происходить скачивание новых серий.
Ваш клиент при этом должен произвести хеширование (проверку) старой папки (если не производит сам - помогите ему сделать это), и будет докачивать только те серии которых у вас ещё нет. Старые серии при этом не удаляются, а продолжают раздаваться!
Eсли вы уже удалили старые серии, то предотвратить повторную закачку старых серий можно, отжав галочку в соответствующих местах при запуске нового торрента. По возможности, желательно не удалять старые серии как можно дольше чтобы релизёр не столько продолжал раздавать старые серии, а смог сконцентрироваться на новых.

MediaInfo

Формат : AVI
Формат/Информация : Audio Video Interleave
Размер файла : 260 Мбайт
Продолжительность : 22 м.
Общий поток : 1608 Кбит/сек
Программа кодирования : Lavf53.4.0
Библиотека кодирования : VirtualDub build 29808/release
Видео
Идентификатор : 0
Формат : MPEG-4 Visual
Профиль формата : [email protected]
Параметр BVOP формата : Нет
Параметр QPel формата : Нет
Параметр GMC формата : Без точки перехода
Параметр матрицы формата : Default (H.263)
Идентификатор кодека : XVID
Идентификатор кодека/Подсказка : XviD
Продолжительность : 22 м.
Битрейт : 1468 Кбит/сек
Ширина : 720 пикселей
Высота : 400 пикселей
Соотношение сторон : 16:9
Частота кадров : 25,000 кадров/сек
Цветовое пространство : YUV
Субдискретизация насыщенности : 4:2:0
Битовая глубина : 8 бит
Тип развёртки : Прогрессивная
Метод сжатия : С потерями
Бит/(Пиксели*Кадры) : 0.204
Размер потока : 237 Мбайт (91%)
Библиотека кодирования : Lavc53.7.0
Аудио
Идентификатор : 1
Формат : MPEG Audio
Версия формата : Version 1
Профиль формата : Layer 3
Режим : Joint stereo
Расширение режима : MS Stereo
Идентификатор кодека : 55
Идентификатор кодека/Подсказка : MP3
Продолжительность : 22 м.
Вид битрейта : Постоянный
Битрейт : 128 Кбит/сек
Каналы : 2 канала
Частота : 44,1 КГц
Метод сжатия : С потерями
Размер потока : 20,7 Мбайт (8%)
Выравнивание : Соединение по промежуткам
Продолжительность промежутка : 26 мс. (0,65 видеокадр)
Время предзагрузки промежутка : 522 мс.
Библиотека кодирования : LAME3.97
Скриншоты:          
Other forum [Profile] [PM]
Display posts from previous:    
Reply to topic

The time now is: Today 11:58

All times are GMT + 3 Hours



You cannot post new topics in this forum
You cannot reply to topics in this forum
You cannot edit your posts in this forum
You cannot delete your posts in this forum
You cannot vote in polls in this forum
You cannot attach files in this forum
You cannot download files in this forum