Today is a free download without charge Download

Жажда (1-4 серии из 4) (2011) DVB

Reply to topic
 
Author
Message

Omen ®

Longevity: 9 years

Posts: 181086

Торрент-статистика

Post 20-Jan-2013 14:08

[Quote]

-Жажда (1-4 серии из 4) (2011) DVB- Оригинальное название: Жажда
Год выпуска: 2011
Страна: Россия / Одесская киностудия, компания "Талан"
Жанр: военный-
Премьера (РФ): 9 мая 2011 (РТР)
Режиссер: Алексей Колмогоров
Актеры: Тарас Бибич, Карина Андоленко, Сергей Удовик, Александр Ефремов (II), Александр Ильин, Константин Демидов (II), Олег Васильков (II), Станислав Беляев, Кирилл Бурдихин, Валентин Варецкий, Владимир Ямненко, Владислав Мамчур, Роман Федосеев, Сергей Алимпиев, Пётр Желев, Богдан Паршаков, Валерий Крупенин, Станислав Лесной, Геннадий Скарга
Описание фильма: В 1941 году Одесса была окружена. Фашисты захватили село Беляевка, где находилась насосная станция, снабжавшая город днестровской водой. Выдача воды одесситам была рационирована. Для того, чтобы отбить станцию, была сформирована специальная группа матросов, которая проникла в тыл врага, включила подачу воды и некоторое время удерживала позиции.
В плен к советским войскам попадает румынский солдат русского происхождения Андрей. До войны он защищал диплом по захвату водонапорной станции в Беляевке. Командование принимает решение отправить в Беляевку десант, который вновь заполнит водохранилище и сможет удерживать его под контролем необходимое время. Андрея назначают инструктором для подготовки операции. Сможет ли его отряд захватить станцию, или в Беляевку придется посылать "золотой запас"?
Не обойдется в фильме и без романтической линии: боец отряда Огонек замечает, что его возлюбленная Анна симпатизирует Андрею...-Продолжительность: серия ~ 00:40
Качество видео: DVB
Видеокодек: MPEG2
Битрейт видео: ~5359 kbps avg
Размер кадра: 720x576 (4:3), 25.000 fps
Аудиокодек: MPEG Audio Layer 2
Аудио: 48 kHz, 2 ch, ~256 kbps avg
Субтитры: отсутствуют

MediaInfo:

Формат : MPEG-PS
Размер файла : 1,64 Гбайт
Продолжительность : 40 м.
Режим общего битрейта : Переменный
Общий поток : 5729 Кбит/сек
Видео
Идентификатор : 224 (0xE0)
Формат : MPEG Video
Версия формата : Version 2
Профиль формата : [email protected]
Параметр BVOP формата : Да
Параметр матрицы формата : Выборочная
Продолжительность : 40 м.
Вид битрейта : Переменный
Битрейт : 5359 Кбит/сек
Максимальный битрейт : 10000 Кбит/сек
Ширина : 720 пикселей
Высота : 576 пикселей
Соотношение сторон : 4:3
Частота кадров : 25,000 кадров/сек
Стандарт вещания : PAL
Цветовое пространство : YUV
Субдискретизация насыщенности : 4:2:0
Битовая глубина : 8 бит
Тип развёртки : Чересстрочная
Порядок развёртки : Верхнее поле первое
Метод сжатия : С потерями
Бит/(Пиксели*Кадры) : 0.517
Размер потока : 1,53 Гбайт (94%)
Аудио
Идентификатор : 192 (0xC0)
Формат : MPEG Audio
Версия формата : Version 1
Профиль формата : Layer 2
Продолжительность : 40 м.
Вид битрейта : Постоянный
Битрейт : 256 Кбит/сек
Каналы : 2 канала
Частота : 48,0 КГц
Метод сжатия : С потерями
Размер потока : 75,0 Мбайт (4%)
Скриншоты:
         
         
Other forum [Profile] [PM]
Similar theme
Forum Topic Author Torrent Replies Last Post
./templates/default/images/folder_dl.gif Антология зарубежного кино Жажда смерти [Пенталогия] / Death Wish [Pentalogy] (Майкл Уиннер, Дж. Ли Томпсон, Аллан Голдштейн) [1974–1993, боевик, триллер, DVDRip] MVO, AVO, VO DED
1 | 0

1 | 3122

1

2015-11-13 22:52
DED Latest
Display posts from previous:    
Reply to topic

The time now is: Today 18:10

All times are GMT + 3 Hours



You cannot post new topics in this forum
You cannot reply to topics in this forum
You cannot edit your posts in this forum
You cannot delete your posts in this forum
You cannot vote in polls in this forum
You cannot attach files in this forum
You cannot download files in this forum