Today is a free download without charge Download

Полет бабочки [4 серии из 4] (2013) SATRip

Reply to topic
 
Author
Message

Omen ®

Longevity: 8 years 11 months

Posts: 181086

Торрент-статистика

Post 20-Jan-2013 04:19

[Quote]

-Полет бабочки [4 серии из 4] (2013) SATRip - Русское название: Полет бабочки
Выпущено: Россия, Украина, Star Media
Год выпуска: 2013
Жанр: Мелодрама
Перевод: Не требуется (Русский)

Режиссер: Николай Михайлов
Актеры: Борис Хвошнянский, Елена Радевич, Павел Баршак, Виктория Малекторович, София Стеценко, Костя Чернокрылюк, Станислав Боклан, Александр Кобзарь
Описание фильма:
В старом элитном доме селится молодая эффектная женщина Светлана с 10-летней дочкой Галей. Выясняется, что она сбежала из Парижа от своего бывшего французского мужа, который собирается отнять у нее дочку. У одного из соседей, известного антиквара Андрея Ковалевского есть сын, ровесник Галочки. Дети очень быстро находят общий язык, что сближает и их мам – Светлану и Ирину Ковалевскую. Вскоре Андрей, желая помочь несчастной соседке, берет ее на работу в свой антикварный салон . Это даст Светлане аргументы для французского суда, чтобы оставить дочь при себе . Отношения Ковалевского и Светланы очень быстро переходят в романтическое русло, что сразу же понимает Ирина. Обычный любовный треугольник? Вовсе нет! Так как в историю вмешается международный аферист, сотрудники ФСБ, якобы утраченный шедевр Казимира Малевича и обостряющееся при перевозбуждении заболевание сына Ковалевского.
Продолжительность: 4 х ~ 00:45:26 серия
Качество видео: SATRip
Видеокодек: DivX 5
Битрейт видео: ~1600 Kbit/s
Размер кадра: 720 x 416
Аудиокодек: MP3, 2.0
Битрейт аудио: 128 Kbit/s

MediaInfo

Общее
Полное имя : D:\Торренты\ФИЛЬМЫ торента\Полет бабочки 2013\Полет бабочки.01.avi
Формат : AVI
Формат/Информация : Audio Video Interleave
Размер файла : 568 Мбайт
Продолжительность : 45 м.
Общий поток : 1738 Кбит/сек
Библиотека кодирования : VirtualDub-MPEG2 build 24600/release
Видео
Идентификатор : 0
Формат : MPEG-4 Visual
Профиль формата : [email protected]
Параметр BVOP формата : Нет
Параметр QPel формата : Нет
Параметр GMC формата : Без точки перехода
Параметр матрицы формата : Default (H.263)
Идентификатор кодека : DX50
Идентификатор кодека/Подсказка : DivX 5
Продолжительность : 45 м.
Битрейт : 1600 Кбит/сек
Ширина : 720 пикс.
Высота : 416 пикс.
Соотношение сторон : 16:9
Частота кадров : 25,000 кадр/сек
Цветовое пространство : YUV
Подвыборка цветности : 4:2:0
Битовая глубина : 8 бит
Тип развёртки : Прогрессивная
Метод сжатия : С потерями
Бит/(Пиксели*Кадры) : 0.214
Размер потока : 523 Мбайт (92%)
Библиотека кодирования : XviD 1.2.1 (UTC 2008-12-04)
Аудио
Идентификатор : 1
Формат : MPEG Audio
Версия формата : Version 1
Профиль формата : Layer 3
Режим : Joint stereo
Расширение режима : MS Stereo
Идентификатор кодека : 55
Идентификатор кодека/Подсказка : MP3
Продолжительность : 45 м.
Вид битрейта : Постоянный
Битрейт : 128 Кбит/сек
Каналы : 2 канала
Частота : 48,0 КГц
Метод сжатия : С потерями
Размер потока : 41,8 Мбайт (7%)
Выравнивание : Разделение по промежуткам
Продолжительность промежутка : 40 мс. (1,00 видеокадр)
Время предзагрузки промежутка : 500 ms
Библиотека кодирования : LAME3.98.2
Скриншоты:
           
Время раздачи: 24/7 по возможности
Other forum [Profile] [PM]
Display posts from previous:    
Reply to topic

The time now is: Today 12:28

All times are GMT + 3 Hours



You cannot post new topics in this forum
You cannot reply to topics in this forum
You cannot edit your posts in this forum
You cannot delete your posts in this forum
You cannot vote in polls in this forum
You cannot attach files in this forum
You cannot download files in this forum