Today is a free download without charge Download

Собачья работа / Серии: 1-8 из 8 (Алексей Рудаков) [2012, Криминал, HDTVRip - AVC]

Reply to topic
 
Author
Message

Omen ®

Longevity: 9 years 1 month

Posts: 181086

Торрент-статистика

Post 20-Jan-2013 04:04

[Quote]

Собачья работа- Год выпуска: 2012
Производство: ООО "Арт Пикчерс Медиа"
Жанр: Криминал
Продолжительность: ~ 00:44:00
Субтитры: нет-Режиссёр: Алексей Рудаков-В ролях: Владимир Епифанцев, Ирина Лачина, Александр Стриженов, Светлана Немоляева, Михаил Полицеймако, Елена Дробышева, Анатолий Журавлёв, Галина Звягинцева, Наталия Житкова, Сергей Фролов, Алексей Ильин, Иван Рудаков, Тамара Череповская, Полина Шулика, Игорь Пазыч, Денис Варенов, Николай Круглов, Александр Пугачев и другие.-Описание: Капитан полиции и кинолог Илья Смагин (Владимир Епифанцев) во время спецоперации по обезвреживанию банды наркодилеров теряет своего напарника и верного друга - пса Рагдая. Смагин тяжело переживает потерю, но, несмотря на уговоры сослуживцев и своей жены-художницы Тони (Ирина Лачина), не спешит брать новую собаку. Рагдай был лучшим "поисковиком" кинологической службы, и Смагин не верит, что ему когда-нибудь удастся найти пса, равного ему. Однако когда Илья уже решает начать поиски новой собаки, судьба преподносит ему неожиданный подарок. Смагину передают письмо от погибшего товарища, в котором тот просит позаботиться о его ретривере Луше....-Доп. Информация: Спасибо mydimka за предоставленный исходник!-Любая реклама ОТСУТСТВУЕТ!!!-Сэмпл-Качество: HDTVRip - AVC [Рип с HDTV 1080i]
Формат: MKV
Видео кодек: H.264
Аудио кодек: AC3
Видео: x264, 1024 х 576 (16:9), 25,000 кадр/сек, ~ 1564 Кбит/сек, ~ 0.106 bit/pixel
Аудио: AC3, 48.0 KHz, 2 канала(ов), 192 kbs

MI

Полное имя : Собачья работа.06 серия.2012.HDTVRip-AVC.Metla111.mkv
Формат : Matroska
Версия формата : Version 2
Размер файла : 557 Мбайт
Продолжительность : 44 м.
Общий поток : 1757 Кбит/сек
Дата кодирования : UTC 2013-01-19 01:31:03
Программа кодирования : mkvmerge v5.8.0 ('No Sleep / Pillow') built on Sep 2 2012 15:37:04
Библиотека кодирования : libebml v1.2.3 + libmatroska v1.3.0
Видео
Идентификатор : 1
Формат : AVC
Формат/Информация : Advanced Video Codec
Профиль формата : [email protected]
Параметр CABAC формата : Да
Параметр ReFrames формата : 12 кадров
Идентификатор кодека : V_MPEG4/ISO/AVC
Продолжительность : 44 м.
Битрейт : 1564 Кбит/сек
Ширина : 1024 пикселя
Высота : 576 пикселей
Соотношение сторон : 16:9
Режим частоты кадров : Постоянный
Частота кадров : 25,000 кадров/сек
Цветовое пространство : YUV
Субдискретизация насыщенности : 4:2:0
Битовая глубина : 8 бит
Тип развёртки : Прогрессивная
Бит/(Пиксели*Кадры) : 0.106
Размер потока : 485 Мбайт (87%)
Библиотека кодирования : x264 core 125 r2208 d9d2288
Настройки программы : cabac=1 / ref=12 / deblock=1:-3:-3 / analyse=0x3:0x113 / me=umh / subme=9 / psy=1 / psy_rd=1.00:0.20 / mixed_ref=1 / me_range=32 / chroma_me=1 / trellis=2 / 8x8dct=1 / cqm=0 / deadzone=21,11 / fast_pskip=1 / chroma_qp_offset=-3 / threads=6 / lookahead_threads=1 / sliced_threads=0 / nr=0 / decimate=0 / interlaced=0 / bluray_compat=0 / constrained_intra=0 / bframes=10 / b_pyramid=2 / b_adapt=2 / b_bias=0 / direct=3 / weightb=1 / open_gop=0 / weightp=2 / keyint=250 / keyint_min=25 / scenecut=40 / intra_refresh=0 / rc=2pass / mbtree=0 / bitrate=1564 / ratetol=1.0 / qcomp=0.70 / qpmin=0 / qpmax=69 / qpstep=4 / cplxblur=20.0 / qblur=0.5 / ip_ratio=1.40 / pb_ratio=1.30 / aq=2:1.00
Default : Да
Forced : Нет
Основные цвета : BT.709
Характеристики трансфера : BT.709
Коэффициенты матрицы : BT.709
Аудио
Идентификатор : 2
Формат : AC-3
Формат/Информация : Audio Coding 3
Расширение режима : CM (complete main)
Параметр Endianness формата : Big
Идентификатор кодека : A_AC3
Продолжительность : 44 м.
Вид битрейта : Постоянный
Битрейт : 192 Кбит/сек
Каналы : 2 канала
Расположение каналов : Front: L R
Частота : 48,0 КГц
Битовая глубина : 16 бит
Метод сжатия : С потерями
Размер потока : 60,9 Мбайт (11%)
Default : Да
Forced : Нет

Log - x264

raw [info]: 1024x576p 1:1 @ 25/1 fps (cfr)
x264 [info]: using SAR=1/1
x264 [info]: using cpu capabilities: MMX2 SSE2Fast SSSE3 FastShuffle SSE4.2
x264 [info]: profile High, level 4.0
x264 [info]: frame I:702 Avg QP:20.83 size: 59418
x264 [info]: frame P:15497 Avg QP:23.81 size: 16811
x264 [info]: frame B:50300 Avg QP:26.19 size: 4325
x264 [info]: consecutive B-frames: 1.9% 2.4% 5.9% 45.7% 18.2% 22.2% 2.2% 1.2% 0.2% 0.1% 0.0%
x264 [info]: mb I I16..4: 8.0% 71.5% 20.5%
x264 [info]: mb P I16..4: 1.7% 8.3% 1.3% P16..4: 45.3% 17.3% 10.2% 0.0% 0.0% skip:16.0%
x264 [info]: mb B I16..4: 0.1% 0.6% 0.1% B16..8: 39.2% 5.5% 1.3% direct: 3.1% skip:50.2% L0:38.6% L1:50.2% BI:11.2%
x264 [info]: 8x8 transform intra:73.1% inter:62.4%
x264 [info]: direct mvs spatial:97.1% temporal:2.9%
x264 [info]: coded y,uvDC,uvAC intra: 77.9% 75.6% 36.2% inter: 14.4% 15.7% 3.7%
x264 [info]: i16 v,h,dc,p: 31% 18% 8% 42%
x264 [info]: i8 v,h,dc,ddl,ddr,vr,hd,vl,hu: 13% 10% 4% 8% 13% 14% 13% 12% 13%
x264 [info]: i4 v,h,dc,ddl,ddr,vr,hd,vl,hu: 14% 9% 3% 8% 14% 14% 13% 11% 13%
x264 [info]: i8c dc,h,v,p: 33% 27% 22% 18%
x264 [info]: Weighted P-Frames: Y:3.1% UV:1.6%
x264 [info]: ref P L0: 50.9% 14.5% 17.6% 4.0% 3.8% 2.2% 2.3% 1.0% 1.1% 0.8% 0.9% 0.8% 0.1% 0.0%
x264 [info]: ref B L0: 86.8% 7.6% 2.3% 1.0% 0.6% 0.5% 0.4% 0.2% 0.2% 0.1% 0.1%
x264 [info]: ref B L1: 96.1% 3.9%
x264 [info]: kb/s:1563.32

Скриншоты

-
Other forum [Profile] [PM]
Display posts from previous:    
Reply to topic

The time now is: Today 06:16

All times are GMT + 3 Hours



You cannot post new topics in this forum
You cannot reply to topics in this forum
You cannot edit your posts in this forum
You cannot delete your posts in this forum
You cannot vote in polls in this forum
You cannot attach files in this forum
You cannot download files in this forum